Missing Privacy  Support us:
X
වෑඩ ඩමා සොයන්න
Hide ads

Red Eye Sinhalese උපසිරසි (2005) 1CD srt

film

Buy at Amazon

Subtitle details

Download
Thanks


Stream this movie on alluc.com

Subtitle filenameRed.Eye[2005]DvDrip.AC3[Eng]-aXXo.srt (121613bytes) කරුනකර පොඩ්ඩක් ඉන්න

Uploader commentIMDB - www.imdb.com/title/tt0421239/
Wikipedia - [url]http://en.wikipedia.org/wiki/Red_Eye_(film)[/url]
Red Eye Trailer - www.youtube.com/watch?v=TAFDHyH8buQ
A woman is kidnapped by a stranger on a routine flight. Threatened by the potential murder of her father, she is pulled into a plot to assist her captor in offing a politician.
IMDB - 85 min - 19 August 2005 (USA) | PG-13
Genre: Thriller
IMDB rating: 6.5/10
Directed by: Wes Craven
Starring: Rachel McAdams, Cillian Murphy and Brian Cox
Info (antivirus and video codecs)
File size: 699.7 Mb
Antivirus (Kaspersky) check: ok (2010-11-17 19:23:49)
Video info:
Duration: 01:25:11.44, start: 0.000000, bitrate: 1148 kb/s
Stream #0.0: Video: mpeg4, yuv420p, 632x252 [PAR 1:1 DAR 158:63], 23.98 tb(r)
Audio info:
Stream #0.1: Audio: ac3, 48000 Hz, stereo, 192 kb/s
Release nameRed.Eye[2005]DvDrip.AC3[Eng]-aXXo23.976 FPS
Uploaderbudditha @ . downloaded1619x () . Remove from favouritesAdd to favourites . Correct subtitlesCorrect subtitles

Uploaded from MX Player v1 developed by mx player

මොන්වහරි කියන්න

පිවිසෙන්නමොනහරි කියන්න පුලුවන්.


budditha @
This Subtitles made by Budditha Fernando And Aruna Weerasingha For Baiscopelk.. Torrent Download 1337x.org/torrent/260143/0/
Interesting links
මේ චිත්‍රපටයෙ ඔක්කොම උපසිරසි මෙ බාසාවෙන්මේ චිත්‍රපටයෙ ඔක්කොම උපසිරසි
All subtitles from this userRequest this subtitle for a different release
About movie:About movie @ http://www.imdb.comFind file:Download Red EyeRed Eye watch online for freeRed Eye downloadDownload warez
Release:Release @ http://www.btarena.orgRelease @ http://nfo.raidrush.wsOfficial site:DreamWorks [us] | Official site [uk] | UIP [es]
Trailers:Trailers @ http://www.imdb.comPosters:Red Eye movie postersPosters @ http://www.imdb.com
Covers:Covers @ https://www.allcdcovers.comCovers @ http://www.cdcovers.ccCovers @ http://www.cdcovers.to
Movie detailsAKA:Red Eye [2005] (sin), Don't Airport (eng)
Movie Rating:6.5 / 10 (99103)
[ Fear Takes Flight ] - A woman is kidnapped by a stranger on a routine flight. Threatened by the potential murder of her father, she is pulled into a plot to assist her captor in offing a politician.
Directed by:
Writer credits:
Country:
Hide ads
download subtitle