Missing Privacy  Support us:
X
Pesquisa avançada
Assista seus filmes legendados utilizando o Open Subtitles MKV Player. É grátis, limpo e compatível com Windows.
Recomendamos que visite os endereços na seção: links interessantes
Remover propaganda

Legendas para filmes HD/(Alta Definição)

G.I. Joe: Retaliation Portuguese (BR) Legendas (2013) 1CD srt

Baixar: G.I. Joe: Retaliation movie

film

Comprar na Amazon

Detalhes da legenda

Baixar
Muito obrigado.2 agradecimento recebido.

Avalie a qualidade desta legenda

Avalie a QUALIDADE da legenda com 1 pontos (Muito ruim)Avalie a QUALIDADE da legenda com 3 pontos (Ruim)Avalie a QUALIDADE da legenda com 5 pontos (Ok)Avalie a QUALIDADE da legenda com 7 pontos (Bom)Avalie a QUALIDADE da legenda com 10 pontos (Excelente)

Comentar

Esqueça a web, baixe legendas com Open Subtitles MKV Player

Nome da legendaG.I. Joe Conspiration 2013 1080p Blu-ray FRE AVC TRUEHD 7.1 -WiHD.srt (85471bytes) Mostrar prévia

							Hash - derivedG.I..Joe_.Retaliation.2013.1080p.BluRay.x264.YIFY.mp4 | 2034395246 | Nome dos filmes

							Hash - BSPlayer v2.57G.I.Joe Retaliation [2013]-Extended ActionCut-720p-BRrip-x26 | 713857196 | Nome dos filmes

							Hash - derivedvedett-gijoe.720p.mkv | 4685875098 | Nome dos filmes

							Hash - BSPlayer v2.57G.I..Joe_.Retaliation.2013.720p.BluRay.x264.YIFY.mp4 | 909324717 | Nome dos filmes

							Hash - BSPlayer v2.63GI Joe Retaliation.m4v | 1351517508 | Nome dos filmes

							Hash - BSPlayer v2.63vedett-gijoe.1080p.mkv | 8207948475 | Nome dos filmes

							Hash - BSPlayer v2.62G.I. Joe Retaliation 2013 EXTENDED 1080p BRRip x264 AC3-JYK. | 3410213232 | Nome dos filmes

							Hash - BSPlayer v2.65G.I.Joe.Retaliation.mkv | 3357028194 | Nome dos filmes

							Hash - BSPlayer v2.63G.I. Joe - Retaliation (2013).mkv | 392721491 | Nome dos filmes

							Hash - BSPlayer v2.63G.I Joe Retaliation (2013) Extended Cut 1080p Blu-Ray x264 5 | 2564326513 | Nome dos filmes

							Hash - BSPlayer v2.65G.I Joe Retaliation 2013 1080p x264.mkv | 2439581394 | Nome dos filmes

							Hash - BSPlayer v2.65g.i.joe.retaliation.2013.EXTENDED.1080p.bluray.truehd.7.1.x2 | 16138689163 | Nome dos filmes

							Hash - derived733865554 | Nome dos filmes

							Hash - BSPlayer v2.63G.I.Joe.Retaliation.2013.1080p.EXTENDED.Bluray.X264-BARC0DE. | 9580327486 | Nome dos filmes

							Hash - BSPlayer v2.61G.I.Joe.Retaliacao.BDRip.XviD.Dual.Audio-3LT0N.avi | 847819166 | Nome dos filmes

							Hash - BSPlayer v2.56G.I.Joe.Retaliation.2013.mkv | 1614469248 | Nome dos filmes

							Hash - derived731091780 | Nome dos filmes

							Hash - BSPlayer v2.66G I Joe Retaliation 3D 2013 1080p H-OU Multi BRRip x264 ac3 | 7743913934 | Nome dos filmes

							Hash - derived2950643125 | Nome dos filmes

							Hash - BSPlayer v2.66G.I.Joe.Retaliation.2013.Extended.Action.Cut.720p.BluRay.DTS | 8532967915 | Nome dos filmes

							Hash - BSPlayer v2.66G.I.Joe.Retaliation.2013.EXTENDED.720p.BRRip.x264.AAC-ViSiON | 2678028916 | Nome dos filmes

Comentário do autorG.I. Joe Conspiration 2013 1080p Blu-ray FRE AVC TRUEHD 7.1 -WiHD.m2ts
Format : BDAV
Format/Info : Blu-ray Video
File size : 33.1 GiB
Duration : 2h 3mn
Overall bit rate mode : Variable
Overall bit rate : 38.5 Mbps
Maximum Overall bit rate : 48.0 Mbps
Video
ID : 4113 (0x1011)
Menu ID : 1 (0x1)
Format : AVC
Format/Info : Advanced Video Codec
Format profile : [email protected]
Format settings, CABAC : Yes
Format settings, ReFrames : 4 frames
Codec ID : 27
Duration : 2h 3mn
Bit rate mode : Variable
Bit rate : 33.1 Mbps
Maximum bit rate : 36.0 Mbps
Width : 1 920 pixels
Height : 1 080 pixels
Display aspect ratio : 16:9
Frame rate : 23.976 fps
Color space : YUV
Chroma subsampling : 4:2:0
Bit depth : 8 bits
Scan type : Progressive
Bits/(Pixel*Frame) : 0.665
Stream size : 28.4 GiB (86%)
Audio #1
ID : 4352 (0x1100)
Menu ID : 1 (0x1)
Format : TrueHD / AC-3
Mode extension : CM (complete main)
Format settings, Endianness : Big
Muxing mode : Stream extension
Codec ID : 131
Duration : 2h 3mn
Bit rate mode : Variable / Constant
Bit rate : 640 Kbps
Maximum bit rate : 6 108 Kbps
Channel(s) : 8 channels / 6 channels
Channel positions : Front: L C R, Side: L R, Back: L R, LFE / Front: L C R, Side: L R, LFE
Sampling rate : 48.0 KHz
Bit depth : 16 bits
Stream size : 563 MiB (2%)
Audio #2
ID : 4353 (0x1101)
Menu ID : 1 (0x1)
Format : AC-3
Format/Info : Audio Coding 3
Mode extension : CM (complete main)
Format settings, Endianness : Big
Codec ID : 129
Duration : 2h 3mn
Bit rate mode : Constant
Bit rate : 640 Kbps
Channel(s) : 6 channels
Channel positions : Front: L C R, Side: L R, LFE
Sampling rate : 48.0 KHz
Bit depth : 16 bits
Compression mode : Lossy
Stream size : 563 MiB (2%)
Audio #3
ID : 4354 (0x1102)
Menu ID : 1 (0x1)
Format : AC-3
Format/Info : Audio Coding 3
Mode extension : CM (complete main)
Format settings, Endianness : Big
Codec ID : 129
Duration : 2h 3mn
Bit rate mode : Constant
Bit rate : 640 Kbps
Channel(s) : 6 channels
Channel positions : Front: L C R, Side: L R, LFE
Sampling rate : 48.0 KHz
Bit depth : 16 bits
Compression mode : Lossy
Stream size : 563 MiB (2%)
Audio #4
ID : 4355 (0x1103)
Menu ID : 1 (0x1)
Format : AC-3
Format/Info : Audio Coding 3
Mode extension : CM (complete main)
Format settings, Endianness : Big
Codec ID : 129
Duration : 2h 3mn
Bit rate mode : Constant
Bit rate : 640 Kbps
Channel(s) : 6 channels
Channel positions : Front: L C R, Side: L R, LFE
Sampling rate : 48.0 KHz
Bit depth : 16 bits
Compression mode : Lossy
Stream size : 563 MiB (2%)
Audio #5
ID : 4356 (0x1104)
Menu ID : 1 (0x1)
Format : AC-3
Format/Info : Audio Coding 3
Mode extension : CM (complete main)
Format settings, Endianness : Big
Codec ID : 129
Duration : 2h 3mn
Bit rate mode : Constant
Bit rate : 640 Kbps
Channel(s) : 6 channels
Channel positions : Front: L C R, Side: L R, LFE
Sampling rate : 48.0 KHz
Bit depth : 16 bits
Compression mode : Lossy
Stream size : 563 MiB (2%)
Audio #6
ID : 4357 (0x1105)
Menu ID : 1 (0x1)
Format : AC-3
Format/Info : Audio Coding 3
Mode extension : CM (complete main)
Format settings, Endianness : Big
Codec ID : 129
Duration : 2h 3mn
Bit rate mode : Constant
Bit rate : 640 Kbps
Channel(s) : 6 channels
Channel positions : Front: L C R, Side: L R, LFE
Sampling rate : 48.0 KHz
Bit depth : 16 bits
Compression mode : Lossy
Stream size : 563 MiB (2%)
Nome da versão (release)G.I. Joe Conspiration 2013 1080p Blu-ray FRE AVC TRUEHD 7.1 -WiHD.m2ts23.976 FPS
Autorcamarim @ . baixado16948x () . Excluir dos favoritosAdicionar aos favoritos . Corrigir legendasCorrigir legendas

Carregadas via BSPlayer v2.57 desenvolvido por bst2

Comentar

Efetuar login para escrever comentários.

Baixar G.I. Joe: Retaliation em 25 MBit
Travelers.S01E03.HDTV.x264-KILLERS[ettv] (229 MB) Vikings.S04E11.HDTV.x264-KILLERS[ettv].m (314 MB)
lucifer.210.hdtv-lol.mkv (264 MB) The.Walking.Dead.S07E06.1080p.WEB-DL.DUA (2071 MB)
G.I. Joe: Retaliation Legendas Portuguese (BR)
Nome da versão (release)#CD EnviadaBaixadasPontuação da legendaAutor
G.I.Joe.Retaliation.3D.2013.1080p.BluRay.Half-SBS.x264-HDW... 1CD784x 0.00clazevedo
G.I..Joe_.Retaliation.2013.1080p.3D.HSBS.BluRay.x264.YIFY1CD313x 0.00clazevedo
G.I.Joe.Retaliacao.2013.[G.I.Joe.Retaliation.]Dual.ptbr.en... Lengendas de fonte confiável1CD4144x 0.00cinefala
G.I.Joe.Retaliation.2013.Extended.Action.Cut.BDRiP.x264.AC... 1CD3030x 0.00
G.I.Joe.Retaliation.3D.2013.1080p.BluRay.Half-SBS.x264-HDW... 1CD3487x 0.00
G.I..Joe_.Retaliation.2013.720p.BluRay.x264.YIFYLengendas de fonte confiável1CD12048x 0.00Osmari9
G.I..Joe_.Retaliation.2013.1080p.BluRay.x264.YIFYLengendas de fonte confiável1CD14474x 0.00
G.I.Joe.Retaliation.2013.Extended.Action.Cut.BDRip.XviD-EX... 2CD1378x 0.00
Extended.Action.Cut.720p-VeDeTT / 1080p / BRRipLengendas de fonte confiável1CD12198x 1.01Syncboss
G.I.Joe.Retaliation.2013.DVDRip.XviD-EXViD2CD3656x 0.00
Links interessantes
Todas as legendas para este filme neste idiomaTodas as legendas para este filme
Todas as legendas deste usuárioPedir esta legenda para uma versão diferente
Sobre o filme:Sobre o filme @ http://www.imdb.comAchar arquivo:G.I. Joe: Retaliation downloadG.I. Joe: Retaliation SevenTorrentsAchar arquivo @ http://torrentsdown.comDownload warez
Release:Release @ http://www.btarena.orgRelease @ http://nfo.raidrush.wsPágina oficial:Official Facebook | Paramount [us]
Trailers:Trailers @ http://www.imdb.comPosters:G.I. Joe: Retaliation movie postersPosters @ http://www.imdb.com
Capas:Capas @ http://www.allcdcovers.comCapas @ http://www.cdcovers.ccCapas @ http://www.cdcovers.to
Legendas:Legendas @ https://hitsubtitles.comOutros:Ponha seu link aqui
Detalhes do filmeTambém conhecido por:G.I. Joe: Retaliação (pob), G.I. Joe 2 (eng), G.I. Joe: Retaliation (eng), G.I. Joe: Атака кобри 2 (eng), G.I.JOE: АТАКА КОБРИ 2 (eng)
Pontuação do filme:5.8 / 10 (147306)
[ ] - The G.I. Joes are not only fighting their mortal enemy Cobra; they are forced to contend with threats from within the government that jeopardize their very existence.
Dirigido por:
Créditos de autor:
País:
Idioma:
Remover propaganda
download subtitle