Bloqueio de anúncio detectado, considere apoiar www.OpenSubtitles.org de outra forma
X
Pesquisa avançada
Assista seus filmes legendados utilizando o Open Subtitles MKV Player. É grátis, limpo e compatível com Windows.
Muitos ícones estão ativos, passe o mouse por cima deles para saber o seu significado
Remover propaganda

Legendas para filmes HD/(Alta Definição)

Django Unchained Portuguese (BR) Legendas (2012) 1CD srt

Baixar: Django Unchained movie

film

Comprar na Amazon

Detalhes da legenda

Baixar
Muito obrigado.18 agradecimento recebido.

Avalie a qualidade desta legenda

Avalie a QUALIDADE da legenda com 1 pontos (Muito ruim)Avalie a QUALIDADE da legenda com 3 pontos (Ruim)Avalie a QUALIDADE da legenda com 5 pontos (Ok)Avalie a QUALIDADE da legenda com 7 pontos (Bom)Avalie a QUALIDADE da legenda com 10 pontos (Excelente)

Comentar

Add subtitles to your movies with Freemake Video Converter

Nome da legendaDjango Unchained 2012 1080p Blu-ray AVC DTS-HD MA 5.1-HDWinG.srt (146998bytes) Mostrar prévia

Comentário do autorDjango Unchained 2012 1080p Blu-ray AVC DTS-HD MA 5.1-HDWinG.m2ts
Format : BDAV
Format/Info : Blu-ray Video
File size : 37.1 GiB
Duration : 2h 45mn
Overall bit rate mode : Variable
Overall bit rate : 32.1 Mbps
Maximum Overall bit rate : 48.0 Mbps
Video
ID : 4113 (0x1011)
Menu ID : 1 (0x1)
Format : AVC
Format/Info : Advanced Video Codec
Format profile : [email protected]
Format settings, CABAC : Yes
Format settings, ReFrames : 2 frames
Codec ID : 27
Duration : 2h 45mn
Bit rate mode : Variable
Width : 1 920 pixels
Height : 1 080 pixels
Display aspect ratio : 16:9
Frame rate : 23.976 fps
Color space : YUV
Chroma subsampling : 4:2:0
Bit depth : 8 bits
Scan type : Progressive
Audio #1
ID : 4352 (0x1100)
Menu ID : 1 (0x1)
Format : DTS
Format/Info : Digital Theater Systems
Format profile : MA / Core
Mode : 16
Format settings, Endianness : Big
Muxing mode : Stream extension
Codec ID : 134
Duration : 2h 45mn
Bit rate mode : Variable
Bit rate : Unknown / 1 509 Kbps
Channel(s) : 6 channels
Channel positions : Front: L C R, Side: L R, LFE
Sampling rate : 48.0 KHz
Bit depth : 24 bits
Compression mode : Lossless / Lossy
Audio #2
ID : 4353 (0x1101)
Menu ID : 1 (0x1)
Format : AC-3
Format/Info : Audio Coding 3
Mode extension : CM (complete main)
Format settings, Endianness : Big
Codec ID : 129
Duration : 2h 45mn
Bit rate mode : Constant
Bit rate : 448 Kbps
Channel(s) : 6 channels
Channel positions : Front: L C R, Side: L R, LFE
Sampling rate : 48.0 KHz
Bit depth : 16 bits
Compression mode : Lossy
Stream size : 530 MiB (1%)
Audio #3
ID : 4354 (0x1102)
Menu ID : 1 (0x1)
Format : AC-3
Format/Info : Audio Coding 3
Mode extension : CM (complete main)
Format settings, Endianness : Big
Codec ID : 129
Duration : 2h 45mn
Bit rate mode : Constant
Bit rate : 448 Kbps
Channel(s) : 6 channels
Channel positions : Front: L C R, Side: L R, LFE
Sampling rate : 48.0 KHz
Bit depth : 16 bits
Compression mode : Lossy
Stream size : 530 MiB (1%)
Nome da versão (release)Django Unchained 2012 1080p Blu-ray AVC DTS-HD MA 5.1-HDWinG23.976 FPS
Autorcamarim @ . baixado2740x () . Excluir dos favoritosAdicionar aos favoritos . Corrigir legendasCorrigir legendas

Carregadas via BSPlayer v2.65 desenvolvido por bst2

Comentar

Efetuar login para escrever comentários.

Baixar Django Unchained em 25 MBit
Shut.In.2016.BluRay.720p.x264.DTS-HDChin (4392 MB) The.Vampire.Diaries.S08E13.720p.HDTV.X26 (1075 MB)
ncis.1414.hdtv-lol[ettv].mkv (216 MB) Doutor.Estranho.2016.720p.BluRay.x264.SP (5907 MB)
Django Unchained Legendas Portuguese (BR)
Nome da versão (release)#CD EnviadaBaixadasPontuação da legendaAutor
Django Livre.pt-21CD192x 0.00jeanmarzura123
django.unchained.2012.1080p.bluray.x264-sparks.mkv1CD375x 10.00xaminha
Django.Unchained.2012.MULTiSUBS.DVDRip.x264.AAC.little_devil1CD1107x 0.00
Django1CD1763x 0.00
Django.Livre.[Django.Unchained].Dual.ptbr.eng.BDRip.Xvid.A... Lengendas de fonte confiável1CD1173x 0.00cinefala
Django.Unchained.2012.BRRip.720p.x264.AAC - PRiSTiNELengendas de fonte confiável1CD2834x 10.00polly1802
Django Unchained 2012 BDRip 1080p x264 DTS 5.1 - KiNGDOMLengendas de fonte confiável1CD4478x 0.00rafael300
Django.Unchained.2012.720p.BRRip.x264.AAC-ViSiON1CD3581x 0.00pf2012
Django.Unchained.2012.1080p.BluRay.x264.YIFYLengendas de fonte confiável1CD13915x 0.00
Django Livre1CD1625x 0.00
Links interessantes
Todas as legendas para este filme neste idiomaTodas as legendas para este filme
Todas as legendas deste usuárioPedir esta legenda para uma versão diferente
Sobre o filme:Sobre o filme @ http://www.imdb.comAchar arquivo:Django Unchained downloadDjango Unchained SevenTorrentsAchar arquivo @ http://torrentsdown.comDownload warez
Release:Release @ http://www.btarena.orgRelease @ http://nfo.raidrush.wsPágina oficial:Official Facebook | Official site | Official site [fr]
Trailers:Trailers @ http://www.imdb.comPosters:Django Unchained movie postersPosters @ http://www.imdb.com
Capas:Capas @ http://www.allcdcovers.comCapas @ http://www.cdcovers.ccCapas @ http://www.cdcovers.to
Legendas:Legendas @ https://hitsubtitles.comOutros:Ponha seu link aqui
Detalhes do filmeTambém conhecido por:Django Livre (pob), Django déchaîné (eng), Django elszabadul (eng), Django Unchained (eng), Джанго вiльний (eng)
Pontuação do filme:8.4 / 10 (994725)
[ This Christmas, Django is off the chain. ] - With the help of a German bounty hunter, a freed slave sets out to rescue his wife from a brutal Mississippi plantation owner.
Dirigido por:
Créditos de autor:
País:
Remover propaganda
download subtitle