Missing Privacy  Support us:
X
Pesquisa avançada
Assista seus filmes legendados utilizando o Open Subtitles MKV Player. É grátis, limpo e compatível com Windows.

Legendas para filmes HD/(Alta Definição)

Jack Reacher Portuguese (BR) Legendas (2012) 1CD srt

film

Comprar na Amazon

Detalhes da legenda

Baixar
Muito obrigado.6 agradecimento recebido.

Avalie a qualidade desta legenda

Avalie a QUALIDADE da legenda com 1 pontos (Muito ruim)Avalie a QUALIDADE da legenda com 3 pontos (Ruim)Avalie a QUALIDADE da legenda com 5 pontos (Ok)Avalie a QUALIDADE da legenda com 7 pontos (Bom)Avalie a QUALIDADE da legenda com 10 pontos (Excelente)

Comentar

Nome da legendaJack.Reacher.2012.1080p.BluRay.AVC.DTS-HD.MA.7.1-PCH [PublicHD].srt (97941bytes) Mostrar prévia

Comentário do autorJack.Reacher.2012.1080p.BluRay.AVC.DTS-HD.MA.7.1-PCH [PublicHD].m2ts
Format : BDAV
Format/Info : Blu-ray Video
File size : 35.0 GiB
Duration : 2h 10mn
Overall bit rate mode : Variable
Overall bit rate : 38.4 Mbps
Maximum Overall bit rate : 45.0 Mbps
Video
ID : 4113 (0x1011)
Menu ID : 1 (0x1)
Format : AVC
Format/Info : Advanced Video Codec
Format profile : [email protected]
Format settings, CABAC : Yes
Format settings, ReFrames : 4 frames
Codec ID : 27
Duration : 2h 10mn
Bit rate mode : Variable
Maximum bit rate : 32.0 Mbps
Width : 1 920 pixels
Height : 1 080 pixels
Display aspect ratio : 16:9
Frame rate : 23.976 fps
Color space : YUV
Chroma subsampling : 4:2:0
Bit depth : 8 bits
Scan type : Progressive
Audio #1
ID : 4352 (0x1100)
Menu ID : 1 (0x1)
Format : DTS
Format/Info : Digital Theater Systems
Format profile : MA / Core
Mode : 16
Format settings, Endianness : Big
Muxing mode : Stream extension
Codec ID : 134
Duration : 2h 10mn
Bit rate mode : Variable
Bit rate : Unknown / 1 509 Kbps
Channel(s) : 8 channels / 6 channels
Channel positions : Front: L C R, Side: L R, Back: L R, LFE / Front: L C R, Side: L R, LFE
Sampling rate : 48.0 KHz
Bit depth : 24 bits
Compression mode : Lossless / Lossy
Audio #2
ID : 4353 (0x1101)
Menu ID : 1 (0x1)
Format : AC-3
Format/Info : Audio Coding 3
Mode extension : CM (complete main)
Format settings, Endianness : Big
Codec ID : 129
Duration : 2h 10mn
Bit rate mode : Constant
Bit rate : 640 Kbps
Channel(s) : 6 channels
Channel positions : Front: L C R, Side: L R, LFE
Sampling rate : 48.0 KHz
Bit depth : 16 bits
Compression mode : Lossy
Stream size : 597 MiB (2%)
Audio #3
ID : 4354 (0x1102)
Menu ID : 1 (0x1)
Format : AC-3
Format/Info : Audio Coding 3
Mode extension : CM (complete main)
Format settings, Endianness : Big
Codec ID : 129
Duration : 2h 10mn
Bit rate mode : Constant
Bit rate : 640 Kbps
Channel(s) : 6 channels
Channel positions : Front: L C R, Side: L R, LFE
Sampling rate : 48.0 KHz
Bit depth : 16 bits
Compression mode : Lossy
Stream size : 597 MiB (2%)
Audio #4
ID : 4355 (0x1103)
Menu ID : 1 (0x1)
Format : AC-3
Format/Info : Audio Coding 3
Mode extension : CM (complete main)
Format settings, Endianness : Big
Codec ID : 129
Duration : 2h 10mn
Bit rate mode : Constant
Bit rate : 640 Kbps
Channel(s) : 6 channels
Channel positions : Front: L C R, Side: L R, LFE
Sampling rate : 48.0 KHz
Bit depth : 16 bits
Compression mode : Lossy
Stream size : 597 MiB (2%)
Audio #5
ID : 4356 (0x1104)
Menu ID : 1 (0x1)
Format : AC-3
Format/Info : Audio Coding 3
Mode extension : CM (complete main)
Format settings, Endianness : Big
Codec ID : 129
Duration : 2h 10mn
Bit rate mode : Constant
Bit rate : 640 Kbps
Channel(s) : 6 channels
Channel positions : Front: L C R, Side: L R, LFE
Sampling rate : 48.0 KHz
Bit depth : 16 bits
Compression mode : Lossy
Stream size : 597 MiB (2%)
Audio #6
ID : 4357 (0x1105)
Menu ID : 1 (0x1)
Format : AC-3
Format/Info : Audio Coding 3
Mode extension : CM (complete main)
Format settings, Endianness : Big
Codec ID : 129
Duration : 2h 10mn
Bit rate mode : Constant
Bit rate : 640 Kbps
Channel(s) : 6 channels
Channel positions : Front: L C R, Side: L R, LFE
Sampling rate : 48.0 KHz
Bit depth : 16 bits
Compression mode : Lossy
Stream size : 597 MiB (2%)
Audio #7
ID : 4358 (0x1106)
Menu ID : 1 (0x1)
Format : AC-3
Format/Info : Audio Coding 3
Mode extension : CM (complete main)
Format settings, Endianness : Big
Codec ID : 129
Duration : 2h 10mn
Bit rate mode : Constant
Bit rate : 224 Kbps
Channel(s) : 2 channels
Channel positions : Front: L R
Sampling rate : 48.0 KHz
Bit depth : 16 bits
Compression mode : Lossy
Stream size : 209 MiB (1%)
Audio #8
ID : 4359 (0x1107)
Menu ID : 1 (0x1)
Format : AC-3
Format/Info : Audio Coding 3
Mode extension : CM (complete main)
Format settings, Endianness : Big
Codec ID : 129
Duration : 2h 10mn
Bit rate mode : Constant
Bit rate : 224 Kbps
Channel(s) : 2 channels
Channel positions : Front: L R
Sampling rate : 48.0 KHz
Bit depth : 16 bits
Compression mode : Lossy
Stream size : 209 MiB (1%)
Nome da versão (release)Jack.Reacher.2012.1080p.BluRay.AVC.DTS-HD.MA.7.1-PCH [PublicHD]
Autorcamarim @ . baixado13985x () . Excluir dos favoritosAdicionar aos favoritos . Corrigir legendasCorrigir legendas

Carregadas via BSPlayer v2.61 desenvolvido por bst2

Comentar

Efetuar login para escrever comentários.

Jack Reacher Legendas Portuguese (BR)
Nome da versão (release)#CD EnviadaBaixadasPontuação da legendaAutor
Jack Reacher Never Go Back (2016)1CD151x 0.00
Jack.Reacher.Never.Go.Back.2016.HDRip.XviD.AC3-EVO1CD477x 10.00
Jack.Reacher.Never.Go.Back.2016.1080p.WEB-DL.DD5.1.H264-FGT1CD1387x 10.00jemoimeme
Jack Reacher - O Ultimo Tiro1CD143x 10.00
Jack.Reacher.Never.Go.Back.2016.HC.HDRip.XviD.AC3-EVO1CD2703x 0.00
Hannibal S01E08-Fromage1CD171x 0.00
Jack.Reacher.Dual.ptbr.eng.BDRip.Xvid.Ac3.Brazilinjapan.by... Lengendas de fonte confiável1CD1139x 0.00cinefala
Jack.Reacher.2012.1080p.BRrip.x264.GAZ.YIFYLengendas de fonte confiável1CD20414x 0.00
Jack.Reacher.2012.BluRay.BDRip.BRRip [SubRip]Lengendas de fonte confiável1CD14435x 0.00
Jack Reacher1CD363x 0.00ideraldo
Links interessantes
Todas as legendas para este filme neste idiomaTodas as legendas para este filme
Todas as legendas deste usuárioPedir esta legenda para uma versão diferente
Sobre o filme:Sobre o filme @ http://www.imdb.comAchar arquivo:Jack Reacher downloadJack Reacher SevenTorrentsAchar arquivo @ http://torrentsdown.comDownload warez
Release:Release @ http://www.btarena.orgRelease @ http://nfo.raidrush.wsPágina oficial:Paramount [us]
Trailers:Trailers @ http://www.imdb.comPosters:Jack Reacher movie postersPosters @ http://www.imdb.com
Capas:Capas @ http://www.allcdcovers.comCapas @ http://www.cdcovers.ccCapas @ http://www.cdcovers.to
Legendas:Legendas @ http://subtitles.movieOutros:Ponha seu link aqui
Detalhes do filmeTambém conhecido por:Jack Reacher: O Último Tiro (pob), Jack Reacher - O Último Tiro (pob), One Shot (eng), Джек Рiчер (eng), Jack Reacher (eng), Jack Reacher - 2012 (eng)
Pontuação do filme:7.0 / 10 (253120)
[ The law has limits. He does not. ] - A homicide investigator digs deeper into a case involving a trained military sniper who shot five random victims.
País:
Idioma:
download subtitle