Missing Privacy  Support us:
X
Pesquisa avançada
Remover propaganda

Legendas para filmes HD/(Alta Definição)Somente Partes Estrangeiras

Freelancers Portuguese (BR) Legendas (2012) 1CD srt

film

Comprar na Amazon

Detalhes da legenda

Baixar
Muito obrigado.

Avalie a qualidade desta legenda

Avalie a QUALIDADE da legenda com 1 pontos (Muito ruim)Avalie a QUALIDADE da legenda com 3 pontos (Ruim)Avalie a QUALIDADE da legenda com 5 pontos (Ok)Avalie a QUALIDADE da legenda com 7 pontos (Bom)Avalie a QUALIDADE da legenda com 10 pontos (Excelente)

Comentar

Nome da legendaFinal - Copy.srt (101788bytes) Mostrar prévia

Comentário do autorFreelancers 2012 BluRay REMUX 1080p AVC DTS-HD MA 5.1-LEGi0N.mkv
Format : Matroska
Format version : Version 2
File size : 24.5 GiB
Duration : 1h 36mn
Overall bit rate mode : Variable
Overall bit rate : 36.3 Mbps
Encoded date : UTC 2012-08-19 19:24:24
Writing application : mkvmerge v5.7.0 ('The Whirlwind') built on Jul 8 2012 20:08:51
Writing library : libebml v1.2.3 + libmatroska v1.3.0
Video
ID : 1
Format : AVC
Format/Info : Advanced Video Codec
Format profile : [email protected]
Format settings, CABAC : Yes
Format settings, ReFrames : 4 frames
Muxing mode : Container [email protected]
Codec ID : V_MPEG4/ISO/AVC
Duration : 1h 36mn
Bit rate mode : Variable
Bit rate : 34.1 Mbps
Maximum bit rate : 37.0 Mbps
Width : 1 920 pixels
Height : 1 080 pixels
Display aspect ratio : 16:9
Frame rate mode : Constant
Frame rate : 23.976 fps
Color space : YUV
Chroma subsampling : 4:2:0
Bit depth : 8 bits
Scan type : Progressive
Bits/(Pixel*Frame) : 0.686
Stream size : 23.0 GiB (94%)
Default : No
Forced : No
Audio
ID : 2
Format : DTS
Format/Info : Digital Theater Systems
Mode : 16
Format settings, Endianness : Big
Codec ID : A_DTS
Duration : 1h 36mn
Bit rate mode : Constant
Bit rate : 1 509 Kbps
Channel(s) : 6 channels
Channel positions : Front: L C R, Side: L R, LFE
Sampling rate : 48.0 KHz
Bit depth : 24 bits
Compression mode : Lossy
Stream size : 1.02 GiB (4%)
Language : English
Default : Yes
Forced : No
Nome da versão (release)Freelancers 2012 BluRay REMUX 1080p AVC DTS-HD MA 5.1-LEGi0N.mkv23.976 FPS
Autorcamarim @ . baixado202x () . Excluir dos favoritosAdicionar aos favoritos . Corrigir legendasCorrigir legendas

Comentar

Efetuar login para escrever comentários.

Freelancers Legendas Portuguese (BR)
Nome da versão (release)#CD EnviadaBaixadasPontuação da legendaAutor
Assasinos.de.Aluguel.2012.480p.BRRip.XviD.Dual.AC3-ANiRAK1CD590x 0.00
Serve para "TODOS" os releases "BLURAY"Lengendas de fonte confiável1CD888x 10.00
Serve para "TODOS" os releases "BDRIP e BRRIP"Lengendas de fonte confiável1CD452x 0.00noriegaRJ
Serve para "TODOS" os releases "DVDRIP"Lengendas de fonte confiável1CD1750x 0.00
freelancers.2012.BluRay.1080p.DTS.x264-CHD1CD1120x 10.00
Freelancers.2012.DVDRiP.XviDLengendas de fonte confiável1CD3827x 0.00
Links interessantes
Todas as legendas para este filme neste idiomaTodas as legendas para este filme
Todas as legendas deste usuárioPedir esta legenda para uma versão diferente
Sobre o filme:Sobre o filme @ http://www.imdb.comAchar arquivo:Download FreelancersFreelancers watch online for freeFreelancers downloadDownload warez
Release:Release @ http://www.btarena.orgRelease @ http://nfo.raidrush.wsPágina oficial:Official site [jp]
Trailers:Trailers @ http://www.imdb.comPosters:Freelancers movie postersPosters @ http://www.imdb.com
Capas:Capas @ https://www.allcdcovers.comCapas @ http://www.cdcovers.ccCapas @ http://www.cdcovers.to
Detalhes do filmeTambém conhecido por:Assassinos de Aluguel (pob), Freelancers (pob), Agents libres (eng), Crossfire (eng)
Pontuação do filme:4.6 / 10 (8434)
[ ] - The son of a slain NYPD officer joins the force, where he falls in with his father's former partner and a team of rogue cops.
Dirigido por:
Créditos de autor:
País:
Idioma:
Remover propaganda
download subtitle