Bloqueio de anúncio detectado, considere apoiar www.OpenSubtitles.org de outra forma
X
Pesquisa avançada
Remover propaganda

Legendas para filmes HD/(Alta Definição)Somente Partes Estrangeiras

There Be Dragons Portuguese (BR) Legendas (2011) 1CD srt

film

Comprar na Amazon

Detalhes da legenda

Baixar
Muito obrigado.

Avalie a qualidade desta legenda

Avalie a QUALIDADE da legenda com 1 pontos (Muito ruim)Avalie a QUALIDADE da legenda com 3 pontos (Ruim)Avalie a QUALIDADE da legenda com 5 pontos (Ok)Avalie a QUALIDADE da legenda com 7 pontos (Bom)Avalie a QUALIDADE da legenda com 10 pontos (Excelente)

Comentar

Stream this movie on alluc.com

Nome da legendaThere.Be.Dragons.2011.1080p.MKV.x264.AC3.DTS.MultiSubs.srt (77255bytes) Mostrar prévia

Comentário do autorGeneral
Complete name : There Be Dragons (2011) [1080p MKV x264 AC3 DTS]\There.Be.Dragons.2011.1080p.MKV.x264.AC3.DTS.MultiSubs.mkv
Format : Matroska
Format version : Version 2
File size : 9.29 GiB
Duration : 2h 1mn
Overall bit rate : 10.9 Mbps
Encoded date : UTC 2012-01-18 20:40:27
Writing application : mkvmerge v5.2.0 ('I can't explain') built on Dec 18 2011 18:12:03
Writing library : libebml v1.2.3 + libmatroska v1.3.0
Video
ID : 1
Format : AVC
Format/Info : Advanced Video Codec
Format profile : High@L4.1
Format settings, CABAC : Yes
Format settings, ReFrames : 5 frames
Codec ID : V_MPEG4/ISO/AVC
Duration : 2h 1mn
Bit rate : 8 778 Kbps
Width : 1 920 pixels
Height : 824 pixels
Display aspect ratio : 2.35:1
Frame rate : 23.976 fps
Color space : YUV
Chroma subsampling : 4:2:0
Bit depth : 8 bits
Scan type : Progressive
Bits/(Pixel*Frame) : 0.231
Stream size : 7.28 GiB (78%)
Writing library : x264 core 120 r2120 0c7dab9
Encoding settings : cabac=1 / ref=5 / deblock=1:0:0 / analyse=0x3:0x133 / me=umh / subme=7 / psy=1 / psy_rd=1.00:0.00 / mixed_ref=1 / me_range=16 / chroma_me=1 / trellis=1 / 8x8dct=1 / cqm=0 / deadzone=21,11 / fast_pskip=0 / chroma_qp_offset=-2 / threads=12 / sliced_threads=0 / nr=0 / decimate=1 / interlaced=0 / bluray_compat=0 / constrained_intra=0 / bframes=3 / b_pyramid=2 / b_adapt=1 / b_bias=0 / direct=1 / weightb=1 / open_gop=0 / weightp=2 / keyint=250 / keyint_min=23 / scenecut=40 / intra_refresh=0 / rc_lookahead=40 / rc=2pass / mbtree=1 / bitrate=8778 / ratetol=1.0 / qcomp=0.60 / qpmin=0 / qpmax=69 / qpstep=4 / cplxblur=20.0 / qblur=0.5 / ip_ratio=1.40 / aq=1:1.00
Language : English
Default : Yes
Forced : No
Audio #1
ID : 2
Format : DTS
Format/Info : Digital Theater Systems
Codec ID : A_DTS
Duration : 2h 1mn
Bit rate mode : Constant
Bit rate : 1 510 Kbps
Channel(s) : 6 channels
Channel positions : Front: L C R, Side: L R, LFE
Sampling rate : 48.0 KHz
Bit depth : 24 bits
Compression mode : Lossy
Stream size : 1.28 GiB (14%)
Title : DTS
Language : English
Default : Yes
Forced : No
Audio #2
ID : 3
Format : AC-3
Format/Info : Audio Coding 3
Mode extension : CM (complete main)
Format settings, Endianness : Big
Codec ID : A_AC3
Duration : 2h 1mn
Bit rate mode : Constant
Bit rate : 640 Kbps
Channel(s) : 6 channels
Channel positions : Front: L C R, Side: L R, LFE
Sampling rate : 48.0 KHz
Bit depth : 16 bits
Compression mode : Lossy
Stream size : 557 MiB (6%)
Title : AC3
Language : English
Default : No
Forced : No
Text #1
ID : 4
Format : UTF-8
Codec ID : S_TEXT/UTF8
Codec ID/Info : UTF-8 Plain Text
Language : Dutch
Default : Yes
Forced : No
Text #2
ID : 5
Format : UTF-8
Codec ID : S_TEXT/UTF8
Codec ID/Info : UTF-8 Plain Text
Language : English
Default : No
Forced : No
Text #3
ID : 6
Format : UTF-8
Codec ID : S_TEXT/UTF8
Codec ID/Info : UTF-8 Plain Text
Language : Romanian
Default : No
Forced : No
Text #4
ID : 7
Format : UTF-8
Codec ID : S_TEXT/UTF8
Codec ID/Info : UTF-8 Plain Text
Language : Greek
Default : No
Forced : No
Nome da versão (release)There.Be.Dragons.2011.1080p.MKV.x264.AC3.DTS.MultiSubs23.976 FPS
Autorkikobsb @ . baixado222x () . Excluir dos favoritosAdicionar aos favoritos . Corrigir legendasCorrigir legendas

Carregadas via BSPlayer v2.67 desenvolvido por bst2

Comentar

Efetuar login para escrever comentários.

There Be Dragons Legendas Portuguese (BR)
Nome da versão (release)#CD EnviadaBaixadasPontuação da legendaAutor
There.Be.Dragons.2011.BRRip.Xvid.SceneLovers1CD86x 0.00
There.Be.Dragons.2011.720p.BrRip.YIFY1CD586x 0.00
There.Be.Dragons.2011.BluRay.720p.DTS.x264-ZMGLengendas de fonte confiável1CD677x 0.00noriegaRJ
Serve para "TODOS" os releases "BDRIP e BRRIP"Lengendas de fonte confiável1CD1621x 0.00
There.Be.Dragons.2011.DVDRip.XviD.AC3-NYDICLengendas de fonte confiável1CD736x 10.00noriegaRJ
There.Be.Dragons.2011.DVDRip.XviD-EVOLengendas de fonte confiável1CD374x 0.00
There.Be.Dragons.2011.DVDRip.XviD-EVOLengendas de fonte confiável1CD676x 0.00dougsan
Links interessantes
Todas as legendas para este filme neste idiomaTodas as legendas para este filme
Todas as legendas deste usuárioPedir esta legenda para uma versão diferente
Sobre o filme:Sobre o filme @ http://www.imdb.comAchar arquivo:Download There Be DragonsThere Be Dragons watch online for freeThere Be Dragons downloadDownload warez
Release:Release @ http://www.btarena.orgRelease @ http://nfo.raidrush.wsPágina oficial:Official Facebook | Official Facebook [es] | Official MySpace | Official Twitter | Official site [ph]
Trailers:Trailers @ http://www.imdb.comPosters:There Be Dragons movie postersPosters @ http://www.imdb.com
Capas:Capas @ https://www.allcdcovers.comCapas @ http://www.cdcovers.ccCapas @ http://www.cdcovers.to
Detalhes do filmeTambém conhecido por:Encontrará Dragões (pob), Encontrarás Dragões (pob), Segredos da Paixão (pob), Secretos de Pasión (eng), There Be Dragons Blood & Country (eng), There Be Dragons: Secrets of Passion (eng)
Pontuação do filme:5.8 / 10 (4060)
[ Even saints have a past. ] - Arising out of the horror of the Spanish Civil War, a candidate for canonization is investigated by a journalist who discovers his own estranged father had a deep, dark and devastating connection to the saint's life.
Dirigido por:
Créditos de autor:
Idioma:
Remover propaganda
download subtitle