Missing Privacy  Support us:
X
Pesquisa avançada
Assista seus filmes legendados utilizando o Open Subtitles MKV Player. É grátis, limpo e compatível com Windows.
Recomendamos que visite os endereços na seção: links interessantes
Remover propaganda

Legendas para filmes HD/(Alta Definição)

A Fistful of Dollars Portuguese (BR) Legendas (1964) 1CD srt

Baixar: A Fistful of Dollars movie

film

Comprar na Amazon

Detalhes da legenda

Baixar
Muito obrigado.1 agradecimento recebido.

Avalie a qualidade desta legenda

Avalie a QUALIDADE da legenda com 1 pontos (Muito ruim)Avalie a QUALIDADE da legenda com 3 pontos (Ruim)Avalie a QUALIDADE da legenda com 5 pontos (Ok)Avalie a QUALIDADE da legenda com 7 pontos (Bom)Avalie a QUALIDADE da legenda com 10 pontos (Excelente)

Comentar

Add subtitles to your movies with Freemake Video Converter

Nome da legendaA Fistful Of Dollars [1964].srt (55005bytes) Mostrar prévia

Comentário do autorArquivo SubRip: A Fistful Of Dollars [1964].srt
Legendas sincronizadas por RPZ.
General
Complete name: A Fistful Of Dollars [1964].avi
Format: AVI
Format/Info: Audio Video Interleave
File size: 1.11 GiB
Duration:1h 43mn
Overall bit rate:1 535 Kbps
Video
ID: 0
Format: AVC
Format/Info: Advanced Video Codec
Format profile: [email protected]
Format settings, CABAC: Yes
Format settings, ReFrames: 1 frame
Codec ID:H264
Duration:1h 43mn
Bit rate:1 203 Kbps
Width: 720 pixels
Height: 540 pixels
Display aspect ratio:4:3
Frame rate: 29.970 fps
Resolution: 8 bits
Colorimetry: 4:2:0
Scan type: Progressive
Bits/(Pixel*Frame): 0.103
Stream size: 889 MiB (78%)
Audio
ID: 1
Format: MPEG Audio
Format version: Version 1
Format profile: Layer 3
Codec ID:55
Codec ID/Hint: MP3
Duration:1h 43mn
Bit rate mode: Constant
Bit rate:320 Kbps
Channel(s): 2 channels
Sampling rate: 48.0 KHz
Stream size: 237 MiB (21%)
Alignment: Aligned on interleaves
Interleave, duration:33 ms (1.00 video frame)
Writing library: LAMELAME_MAJOR_VERSI
Nome da versão (release) A Fistful Of Dollars [1964]29.970 FPS
Autorrpz @ . baixado811x () . Excluir dos favoritosAdicionar aos favoritos . Corrigir legendasCorrigir legendas

Carregadas via BSPlayer v2.57 desenvolvido por bst2

Comentar

Efetuar login para escrever comentários.

Baixar A Fistful of Dollars em 25 MBit
The.Walking.Dead.S07E06.HDTV.x264-xTV.mk (544 MB) Independence.Day.O.Ressurgimento.2016.10 (2471 MB)
Shooter.S01E03.HDTV.x264-FLEET.mkv (220 MB) Lucifer.S02E10.1080p.HDTV.X264-xHD.mkv (2248 MB)
A Fistful of Dollars Legendas Portuguese (BR)
Nome da versão (release)#CD EnviadaBaixadasPontuação da legendaAutor
Per Um Pugno Di Dollari1CD97x 0.00lusoburro
A Fistful of DollarsLengendas de fonte confiável1CD150x 0.00tiagoaquino
Por Um Punhado de Dólares (1964)1CD180x 0.00NapsterBR
Per Un Pugno Di Dollari1CD83x 0.00
A Fistful of Dollars (1964) 720p.BRrip.sujaidr (pimprg)Lengendas de fonte confiável1CD583x 0.01clazevedo
A Fistful of Dollars (1964) 720p.BRrip.sujaidr (pimprg)1CD425x 10.00EsmagaSapos
A Fistful of Dollars1CD307x 0.00
Per un pugno di dollari1CD384x 0.01amparorm2
A.Fistful.of.Dollars.1964.640.25fps.911kbps.V5.WunSeeDee1CD835x 0.00dvdmuro
A.Fistful.Of.Dollars.1964.720p.BluRay.x264-CiNEFiLE1CD933x 0.00
Links interessantes
Todas as legendas para este filme neste idiomaTodas as legendas para este filme
Todas as legendas deste usuárioPedir esta legenda para uma versão diferente
Sobre o filme:Sobre o filme @ http://www.imdb.comAchar arquivo:A Fistful of Dollars downloadAchar arquivo @ http://torrentsdown.comDownload warez
Release:Release @ http://www.btarena.orgRelease @ http://nfo.raidrush.wsTrailers:Trailers @ http://www.imdb.com
Posters:A Fistful of Dollars movie postersposter at movieposters.2038.netPosters @ http://www.imdb.comCapas:Capas @ http://www.allcdcovers.comCapas @ http://www.cdcovers.ccCapas @ http://www.cdcovers.to
Outros:Ponha seu link aqui
Detalhes do filmeTambém conhecido por:Por um punhado de dólares (pob), Por uns dólares a mais (pob), A Fistful of Dollars - Por um Punhado de Dólares (pob), Fistful of Dollars (eng), For a Fistful of Dollars (eng), For a Fistfull of Dollars (eng), Per un pugno di dollari (eng), Per un pugno di dollari. (eng), The Man with No Name 1: A Fistful of Dollars (eng), A Fist Full of Dollars (eng), За жменю доларiв (eng), A Fistful of Dollars (eng)
Pontuação do filme:8.0 / 10 (149696)
[ In his own way he is perhaps, the most dangerous man who ever lived! ] - A wandering gunfighter plays two rival families against each other in a town torn apart by greed, pride, and revenge.
Dirigido por:
Remover propaganda
download subtitle