Blocco pubblicità rilevato, puoi valutare di sostenerci www.OpenSubtitles.org in un altro modo
X
Ricerca avanzata
Guarda i films con sottotitoli usando Open Subtitles MKV Player. è gratis and funziona con Windows.
Vi raccomandiamo di visitare i links nella sezione links interessati
rimuovere pubblicità

Pilgrim's Progress Italiano sottotitoli (2008) 1CD srt

Scarica: Pilgrim's Progress movie

film

Compra su Amazon

Dettagli sottotitoli

Scarica
Grazie

Valuta la qualità dei sottotitoli

Valuta la QUALITA' dei sottotitoli con 1 punteggio (Pessimi)Valuta la QUALITA' dei sottotitoli con 3 punteggio (mediocri)Valuta la QUALITA' dei sottotitoli con 5 punteggio (okay)Valuta la QUALITA' dei sottotitoli con 7 punteggio (ottimi)Valuta la QUALITA' dei sottotitoli con 10 punteggio (eccellenti)

Commenti

lascia stare il web, scarica i sottotitoli usando Open Subtitles MKV Player

Nome del file dei sottotitoli[ITA] Pilgrim's Progress - Journey To Heaven (2008) - YOUTUBE.srt (89682bytes) Mostra anteprima

Commento del caricatoreFull movie at: www.youtube.com/watch?v=MHk5vrnxALs
Film disponibile all'indirizzo: www.youtube.com/watch?v=MHk5vrnxALs
General
Complete name : C:\Users\LocalUser\Documents\Film\Pilgrim's Progress - Journey To Heaven (2008).avi
Format : AVI
Format/Info : Audio Video Interleave
File size : 879 MiB
Duration : 1h 45mn
Overall bit rate : 1 163 Kbps
Video
ID : 0
Format : MPEG-4 Visual
Format profile : [email protected]
Format settings, BVOP : No
Format settings, QPel : No
Format settings, GMC : No warppoints
Format settings, Matrix : Default (H.263)
Codec ID : XVID
Codec ID/Hint : XviD
Duration : 1h 45mn
Bit rate : 1 023 Kbps
Width : 496 pixels
Height : 368 pixels
Display aspect ratio : 4:3
Frame rate : 23.976 fps
Color space : YUV
Chroma subsampling : 4:2:0
Bit depth : 8 bits
Scan type : Progressive
Compression mode : Lossy
Bits/(Pixel*Frame) : 0.234
Stream size : 773 MiB (88%)
Writing library : XviD 1.1.0 Beta2 (UTC 2005-04-04)
Audio
ID : 1
Format : MPEG Audio
Format version : Version 1
Format profile : Layer 3
Mode : Joint stereo
Mode extension : MS Stereo
Codec ID : 55
Codec ID/Hint : MP3
Duration : 1h 45mn
Bit rate mode : Constant
Bit rate : 128 Kbps
Channel(s) : 2 channels
Sampling rate : 48.0 KHz
Compression mode : Lossy
Stream size : 96.8 MiB (11%)
Alignment : Aligned on interleaves
Interleave, duration : 24 ms (0.58 video frame)
Nome pubblicatoPilgrim's Progress - Journey To Heaven (2008).avi23.976 FPS
CaricatoreRambo_John @ . scaricato102x () . Rimuovi dai preferitiAggiungi ai preferiti . Segnala film non correttoSegnala film non corretto

Caricato da BSPlayer v2.57 sviluppato da bst2

Commenti

log-in per inviare commenti.

Scarica a 25 MBit
arrow.516.hdtv-lol[ettv].mkv (248 MB) Resident.Evil.The.Final.Chapter.2016.108 (3013 MB)
The.100.2017.S04.E06.WEBRip.XviD-FUM.avi (348 MB) The Big Bang Theory [10x18] The Escape H (372 MB)
Collegamenti Interessati
Tutti i sottotitoli per questo film in questa linguaTutti i sottotitoli per questo film
Tutti i sottotitoli da questo utenteRichiedi questi sottotitoli con caratteristiche differenti
Collegamenti riguardanti il film:Collegamenti riguardanti il film @ http://www.imdb.comTrova file:Pilgrim's Progress downloadDownload warez
Collegamenti per i film pubblicati:Collegamenti per i film pubblicati @ http://www.btarena.orgCollegamenti per i film pubblicati @ http://nfo.raidrush.wsSito ufficiale:Official site
Trailers:Trailers @ http://www.imdb.comCollegamenti per inviare commenti:Collegamenti per inviare commenti @ http://www.imdb.com
Covers:Covers @ http://www.allcdcovers.comCovers @ http://www.cdcovers.ccCovers @ http://www.cdcovers.to
Sottotitoli:Sottotitoli @ https://hitsubtitles.comAltri collegamenti:Il tuo indirizzo per inviare commenti
Dettagli del filmAKA:The Pilgrim's Progress: Journey To Heaven (ita), Pilgrims Progress: Journey to Heaven (eng)
Reputazione del film:6.4 / 10 (228)
[ ] - An allegory of the life of a believer on a journey from the City of Destruction to the Celestial City.
Diretto da:
Scrittore dei crediti:
Paese:
Lingua:
rimuovere pubblicità
download subtitle