Missing Privacy  Support us:
X
Ricerca avanzata
Guarda i films con sottotitoli usando Open Subtitles MKV Player. è gratis and funziona con Windows.

Sleeping Beauty Italiano sottotitoli (2011) 1CD srt

film

Compra su Amazon

Dettagli sottotitoli

Scarica
Grazie15 grazie ricevuto

Valuta la qualità dei sottotitoli

Valuta la QUALITA' dei sottotitoli con 1 punteggio (Pessimi)Valuta la QUALITA' dei sottotitoli con 3 punteggio (mediocri)Valuta la QUALITA' dei sottotitoli con 5 punteggio (okay)Valuta la QUALITA' dei sottotitoli con 7 punteggio (ottimi)Valuta la QUALITA' dei sottotitoli con 10 punteggio (eccellenti)

Commenti

Nome del file dei sottotitoliSleeping.beauty.2011.ita.srt (38411bytes) Mostra anteprima

Commento del caricatore"È l'orgoglio che ti blocca il cervello e te lo mette nel C. Mettiglielo tu nel C. L'orgoglio fa solo male. Non aiuta, mai! Supera certe cagate".
=====================================================================
Complete name : Sleeping.beauty.2011.avi
Format : AVI
Format/Info : Audio Video Interleave
File size : 698 MiB
Duration : 1h 37mn
Overall bit rate : 1 000 Kbps
Video
ID : 0
Format : MPEG-4 Visual
Format profile : Advanced [email protected]
Format settings, BVOP : 1
Format settings, QPel : No
Format settings, GMC : No warppoints
Format settings, Matrix : Default (H.263)
Muxing mode : Packed bitstream
Codec ID : XVID
Codec ID/Hint : XviD
Duration : 1h 37mn
Bit rate : 608 Kbps
Width : 720 pixels
Height : 384 pixels
Display aspect ratio : 1.875
Frame rate : 25.000 fps
Color space : YUV
Chroma subsampling : 4:2:0
Bit depth : 8 bits
Scan type : Progressive
Compression mode : Lossy
Bits/(Pixel*Frame) : 0.088
Stream size : 425 MiB (61%)
Writing library : XviD 1.2.1 (UTC 2008-12-04)
Audio
ID : 1
Format : AC-3
Format/Info : Audio Coding 3
Mode extension : CM (complete main)
Codec ID : 2000
Duration : 1h 37mn
Bit rate mode : Constant
Bit rate : 384 Kbps
Channel(s) : 6 channels
Channel positions : Front: L C R, Side: L R, LFE
Sampling rate : 48.0 KHz
Bit depth : 16 bits
Compression mode : Lossy
Stream size : 268 MiB (38%)
Alignment : Aligned on interleaves
Interleave, duration : 64 ms (1.60 video frames)
Interleave, preload duration : 192 ms
Title : VTS_02_1 T82 3_2ch 384Kbps DELAY 0ms
BY Marsellus.Wallace71
Nome pubblicatoSleeping.Beauty.2011.ita25.000 FPS
CaricatoreMarsellus_Wallace71 @ . scaricato11015x () . Rimuovi dai preferitiAggiungi ai preferiti . Segnala film non correttoSegnala film non corretto

Commenti

log-in per inviare commenti.

Collegamenti Interessati
Tutti i sottotitoli per questo film in questa linguaTutti i sottotitoli per questo film
Tutti i sottotitoli da questo utenteRichiedi questi sottotitoli con caratteristiche differenti
Collegamenti riguardanti il film:Collegamenti riguardanti il film @ http://www.imdb.comTrova file:Sleeping Beauty downloadSleeping Beauty SevenTorrentsDownload warez
Collegamenti per i film pubblicati:Collegamenti per i film pubblicati @ http://www.btarena.orgCollegamenti per i film pubblicati @ http://nfo.raidrush.wsSito ufficiale:Official Facebook | Official site | Official site [jp]
Trailers:Trailers @ http://www.imdb.comCollegamenti per inviare commenti:Sleeping Beauty movie postersCollegamenti per inviare commenti @ http://www.imdb.com
Covers:Covers @ http://www.allcdcovers.comCovers @ http://www.cdcovers.ccCovers @ http://www.cdcovers.to
Sottotitoli:Sottotitoli @ http://subtitles.movieAltri collegamenti:Il tuo indirizzo per inviare commenti
Dettagli del filmAKA:Sleeping Beauty (eng), Спляча красуня (eng)
Reputazione del film:5.3 / 10 (27150)
[ ] - A haunting portrait of Lucy, a young university student drawn into a mysterious hidden world of unspoken desires.
Diretto da:
Scrittore dei crediti:
Paese:
Lingua:
download subtitle