Detektiran je "Ad blocking", molimo podržite www.OpenSubtitles.org na neki drugi način
X
Napredna pretraga
Gledaj filmove s titlovima preko Open Subtitles MKV Playera. Besplatan i čist, radi pod Windowsima.
Preporučujemo vam da posjetite linkove u sekciji zanimljivi linkovi
Ukloni reklamu

The Company Men Hrvatski titlovi (2010) 1CD srt

Preuzmi: The Company Men movie

film

Kupite na Amazonu

Pojedinosti o titlu

Preuzmi
Hvala

Ocijenite kvalitetu titlova

Ocijeni KVALITETU titlova s 1 bodova (ne valja)  Ocijeni KVALITETU titlova s 3 bodova (loše)  Ocijeni KVALITETU titlova s 5 bodova (srednje)  Ocijeni KVALITETU titlova s 7 bodova (dobro)  Ocijeni KVALITETU titlova s 10 bodova (odlično)

Komentar

Stream this movie on alluc.com

Naziv titlaThe.Company.Men.2011.DVDRip.XViD.AC3-T0XiCiNK.HR.srt (101531bajtovi) prikaži pregled

							Hash - BSPlayer v2.57The.Company.Men.2011.DVDRip.XViD.AC3-T0XiCiNK.avi | 1425293032 | Naziv filma

							Hash - BSPlayer v2.56The Company Men {2010} DVDRIP. Jaybob .avi | 838807088 | Naziv filma

							Hash - BSPlayer v2.56The Company Men.avi | 733933568 | Naziv filma

							Hash - BSPlayer v2.57rx-compmen-dvdrip.avi | 738076672 | Naziv filma

							Hash - BSPlayer v2.56OneClickMoviez.Com-rx-compmen.avi | 738076673 | Naziv filma

							Hash - BSPlayer v2.57MovizXpress.com-TCM-Rx.avi | 738076673 | Naziv filma

							Hash - BSPlayer v2.61lycan-tcmen.avi | 1560969216 | Naziv filma

							Hash - BSPlayer v2.58The Company Men 2010 DvDRiP XviD-Lyrical.avi | 1092630528 | Naziv filma

							Hash - SubDownloader 1.2.91425293033 | Naziv filma

							Hash - BSPlayer v2.58The.Company.Men.2011.DVDRip.XViD.AC3-T0XiCiNK.avi | 1425394595 | Naziv filma

							Hash - BSPlayer v2.57The.Company.Men.mkv | 469404088 | Naziv filma

							Hash - BSPlayer v2.56The Company Men.mkv | 526948239 | Naziv filma

							Hash - BSPlayer v2.56The.Company.Men.2011.DVDRip.XViD.AC3-T0XiCiNK.HR.srt.mkv | 5871501499 | Naziv filma

							Hash - BSPlayer v2.58The.Company.Men.2010.DvDRip.XviD.Ac3.Feel-Free.avi | 1066556528 | Naziv filma

							Hash - BSPlayer v2.56div-company.men.1080p.mkv | 8533080111 | Naziv filma

Komentar pošiljaocaFormat : AVI
Format/Info : Audio Video Interleave
File size : 1.33 GiB
Duration : 1h 40mn
Overall bit rate : 1 894 Kbps
Writing library : TMPGEnc 4.0 XPress Version. 4.7.4.299
Video
ID : 0
Format : MPEG-4 Visual
Format profile : Advanced [email protected]
Format settings, BVOP : 1
Format settings, QPel : No
Format settings, GMC : No warppoints
Format settings, Matrix : Default (MPEG)
Codec ID : XVID
Codec ID/Hint : XviD
Duration : 1h 40mn
Bit rate : 1 695 Kbps
Width : 720 pixels
Height : 400 pixels
Display aspect ratio : 16:9
Frame rate : 25.000 fps
Color space : YUV
Chroma subsampling : 4:2:0
Bit depth : 8 bits
Scan type : Progressive
Compression mode : Lossy
Bits/(Pixel*Frame) : 0.235
Stream size : 1.19 GiB (89%)
Writing library : XviD 1.2.0.dev47 (UTC 2006-11-01)
Audio
ID : 1
Format : AC-3
Format/Info : Audio Coding 3
Mode extension : CM (complete main)
Codec ID : 2000
Duration : 1h 40mn
Bit rate mode : Constant
Bit rate : 192 Kbps
Channel(s) : 1 channel
Channel positions : Front: C
Sampling rate : 48.0 KHz
Bit depth : 16 bits
Compression mode : Lossy
Stream size : 138 MiB (10%)
Alignment : Aligned on interleaves
Interleave, duration : 240 ms (6.00 video frames)
Interleave, preload duration : 224 ms
Ime distribucijeThe.Company.Men.2011.DVDRip.XViD.AC3-T0XiCiNK25.000 FPS
Pošiljalacigor116 @ . preuzeto2117x () . Ukloni iz najdražihDodaj među najdraže . Ispravi titloveIspravi titlove

Poslano s BSPlayer v2.57 kreirao bst2

Komentar

Prijava napisati komentar.

Preuzmi The Company Men s 25 MBit
Underworld.Blood.Wars.2016.BluRay.1080p. (7010 MB) Bones.S12E10.XviD-AFG.avi (461 MB)
Resident.Evil.The.Final.Chapter.2016.108 (3769 MB) Why.Him.2016.1080p.BluRay.x264-GECKOS.mk (8130 MB)
The Company Men titlovi Hrvatski
Ime distribucije#CD PoslanoSkinutoOcjena titlaPošiljatelj
The Company Men {2010}1CD119x 0.00
The.Company.Men.2011.DvdSCR.Xvid {1337x}-Noir1CD297x 0.00
The.Company.Men.DVDSCR.XViD-iMAGiNE1CD661x 0.00
Interesantni linkovi
Svi titlovi za ovaj film na ovome jezikuSvi titlovi za ovaj film
Svi titlovi od ovog korisnikaZahtjev za ovim titlom za drugi release
O filmu:O filmu @ http://www.imdb.comPronađite datoteku:The Company Men downloadThe Company Men SevenTorrentsDownload warez
Release:Release @ http://www.btarena.orgRelease @ http://nfo.raidrush.wsSlužbeni sajt:Official site [jp] | The Weinstein Company [us]
Trejleri:Trejleri @ http://www.imdb.comPosteri:The Company Men movie postersPosteri @ http://www.imdb.com
Omoti:Omoti @ http://www.allcdcovers.comOmoti @ http://www.cdcovers.ccOmoti @ http://www.cdcovers.to
Titlovi:Titlovi @ https://hitsubtitles.comDrugi:Vaš link ovdje
Pojedinosti o filmuAKA:Direktori na cesti (hrv), The Company Men (eng)
Ocjena filma:6.8 / 10 (37324)
[ Big Business Just Cut The Wrong Guys ] - The story centers on a year in the life of three men trying to survive a round of corporate downsizing at a major company - and how that affects them, their families, and their communities.
Redatelj:
Scenarij:
Žanr:
Zemlja:
Jezik:
Ukloni reklamu
download subtitle