Missing Privacy  Support us:
X
Napredna pretraga
Gledaj filmove s titlovima preko Open Subtitles MKV Playera. Besplatan i čist, radi pod Windowsima.
Većina ikona je aktivna, prijeđite mišem preko njih da biste doznali značenje
Ukloni reklamu

Edward Scissorhands Hrvatski titlovi (1990) 1CD srt

Preuzmi: Edward Scissorhands movie

film

Kupite na Amazonu

Pojedinosti o titlu

Preuzmi
Hvala

Ocijenite kvalitetu titlova

Ocijeni KVALITETU titlova s 1 bodova (ne valja)  Ocijeni KVALITETU titlova s 3 bodova (loše)  Ocijeni KVALITETU titlova s 5 bodova (srednje)  Ocijeni KVALITETU titlova s 7 bodova (dobro)  Ocijeni KVALITETU titlova s 10 bodova (odlično)

Komentar

Stream this movie on alluc.com

Naziv titlaEdward.Scissorhands.1990.INTERNaL.DVDRip.XviD-VCDVaULT.HR.srt (86882bajtovi) prikaži pregled

Komentar pošiljaocaFormat : AVI
Format/Info : Audio Video Interleave
File size : 703 MiB
Duration : 1h 44mn
Overall bit rate : 936 Kbps
Writing application : Nandub v1.0rc2
Writing library : Nandub build 1852/release
Video
ID : 0
Format : MPEG-4 Visual
Format settings, BVOP : Yes
Format settings, QPel : No
Format settings, GMC : No warppoints
Format settings, Matrix : Default (MPEG)
Codec ID : XVID
Codec ID/Hint : XviD
Duration : 1h 44mn
Bit rate : 786 Kbps
Width : 560 pixels
Height : 304 pixels
Display aspect ratio : 16:9
Frame rate : 23.976 fps
Color space : YUV
Chroma subsampling : 4:2:0
Bit depth : 8 bits
Scan type : Progressive
Compression mode : Lossy
Bits/(Pixel*Frame) : 0.193
Stream size : 590 MiB (84%)
Audio
ID : 1
Format : MPEG Audio
Format version : Version 1
Format profile : Layer 3
Mode : Joint stereo
Mode extension : MS Stereo
Codec ID : 55
Codec ID/Hint : MP3
Duration : 1h 44mn
Bit rate mode : Variable
Bit rate : 137 Kbps
Minimum bit rate : 32.0 Kbps
Channel(s) : 2 channels
Sampling rate : 48.0 KHz
Compression mode : Lossy
Stream size : 103 MiB (15%)
Alignment : Aligned on interleaves
Interleave, duration : 24 ms (0.58 video frame)
Interleave, preload duration : 131 ms
Writing library : LAME3.91
Encoding settings : -m j -V 2 -q 2 -lowpass 19.6 --vbr-new -b 32
Ime distribucijeEdward.Scissorhands.1990.INTERNaL.DVDRip.XviD-VCDVaULT23.976 FPS
Pošiljalacigor116 @ . preuzeto630x () . Ukloni iz najdražihDodaj među najdraže . Ispravi titloveIspravi titlove

Poslano s BSPlayer v2.56 kreirao bst2

Komentar

Prijava napisati komentar.

Preuzmi Edward Scissorhands s 25 MBit
Arrow.2016.S05.E08.HDTV.XviD-FUM.avi (348 MB) Travelers.S01E03.HDTV.x264-KILLERS[ettv] (229 MB)
Bridget.Joness.Baby.2016.1080p.BluRay.x2 (8949 MB) The.Flash.2014.S03E08.720p.HDTV.X264-FZH (795 MB)
Edward Scissorhands titlovi Hrvatski
Ime distribucije#CD PoslanoSkinutoOcjena titlaPošiljatelj
Edward Scissorhands (1990) [Eng]1CD24x 0.00
Edward Scissorhands[1990]DvDrip[Eng]-Zuzuu1CD1605x 0.00
Edward Scissorhands (1990)1CD3035x 0.00rimfy (a)
Edward Scissorhands (1990)1CD2168x 0.00piroman (a)
Interesantni linkovi
Svi titlovi za ovaj film na ovome jezikuSvi titlovi za ovaj film
Svi titlovi od ovog korisnikaZahtjev za ovim titlom za drugi release
O filmu:O filmu @ http://www.imdb.comPronađite datoteku:Edward Scissorhands downloadEdward Scissorhands SevenTorrentsDownload warez
Release:Release @ http://www.btarena.orgRelease @ http://nfo.raidrush.wsSlužbeni sajt:Fox Home Entertainment (North America)
Trejleri:Trejleri @ http://www.imdb.comPosteri:Edward Scissorhands movie postersPosteri @ http://www.imdb.com
Omoti:Omoti @ http://www.allcdcovers.comOmoti @ http://www.cdcovers.ccOmoti @ http://www.cdcovers.to
Titlovi:Titlovi @ https://hitsubtitles.comDrugi:Vaš link ovdje
Pojedinosti o filmuAKA:Edward Skaroruki (hrv), Edward Scissorhands (eng)
Ocjena filma:7.9 / 10 (360757)
[ Edward Was Here.... ] - A gentle man, with scissors for hands, is brought into a new community after living in isolation.
Redatelj:
Zemlja:
Jezik:
Ukloni reklamu
download subtitle