Missing Privacy  Support us:
X
Napredna pretraga
Gledaj filmove s titlovima preko Open Subtitles MKV Playera. Besplatan i čist, radi pod Windowsima.

Apt Pupil Hrvatski titlovi (1998) 1CD srt

film

Kupite na Amazonu

Pojedinosti o titlu

Preuzmi
Hvala

Ocijenite kvalitetu titlova

Ocijeni KVALITETU titlova s 1 bodova (ne valja)  Ocijeni KVALITETU titlova s 3 bodova (loše)  Ocijeni KVALITETU titlova s 5 bodova (srednje)  Ocijeni KVALITETU titlova s 7 bodova (dobro)  Ocijeni KVALITETU titlova s 10 bodova (odlično)

Komentar

Stream this movie on alluc.com

Naziv titlaStephen.Kings.Apt.Pupil.1998.DVDRip.XviD.iNTERNAL-PorphyriA.HR.srt (58940bajtovi) prikaži pregled

Komentar pošiljaocaFormat : AVI
Format/Info : Audio Video Interleave
File size : 700 MiB
Duration : 1h 51mn
Overall bit rate : 880 Kbps
Writing application : VirtualDubMod 1.5.4.1 (build 2178/release)
Writing library : VirtualDubMod build 2178/release
Video
ID : 0
Format : MPEG-4 Visual
Format profile : Advanced [email protected]
Format settings, BVOP : 1
Format settings, QPel : No
Format settings, GMC : No warppoints
Format settings, Matrix : Custom
Codec ID : XVID
Codec ID/Hint : XviD
Duration : 1h 51mn
Bit rate : 754 Kbps
Width : 640 pixels
Height : 272 pixels
Display aspect ratio : 2.35:1
Frame rate : 23.976 fps
Color space : YUV
Chroma subsampling : 4:2:0
Bit depth : 8 bits
Scan type : Progressive
Compression mode : Lossy
Bits/(Pixel*Frame) : 0.181
Stream size : 600 MiB (86%)
Writing library : XviD 1.2.0.dev47 (UTC 2006-11-01)
Audio
ID : 1
Format : MPEG Audio
Format version : Version 1
Format profile : Layer 3
Mode : Joint stereo
Mode extension : MS Stereo
Codec ID : 55
Codec ID/Hint : MP3
Duration : 1h 51mn
Bit rate mode : Variable
Bit rate : 114 Kbps
Nominal bit rate : 128 Kbps
Channel(s) : 2 channels
Sampling rate : 48.0 KHz
Compression mode : Lossy
Stream size : 90.4 MiB (13%)
Alignment : Aligned on interleaves
Interleave, duration : 24 ms (0.58 video frame)
Interleave, preload duration : 557 ms
Writing library : LAME3.97
Encoding settings : -m j -V 4 -q 2 -lowpass 17 --abr 128
Language : English
Ime distribucijeStephen.Kings.Apt.Pupil.1998.DVDRip.XviD.iNTERNAL-PorphyriA23.976 FPS
Pošiljalacigor116 @ . preuzeto170x () . Ukloni iz najdražihDodaj među najdraže . Ispravi titloveIspravi titlove

Poslano s BSPlayer v2.56 kreirao bst2

Komentar

Prijava napisati komentar.

Apt Pupil titlovi Hrvatski
Ime distribucije#CD PoslanoSkinutoOcjena titlaPošiljatelj
720p.BDRip.x264.AC3.dxva-HDLiTE1CD26x 0.00titlovic
Rus.Eng.720p.BluRay.x264.(FireBit)1CD201x 0.00titlovic
HDTV.720p.x264.AC3-5.1-iLL1CD12x 0.00titlovic
Apt Pupil1CD142x 0.00titlovic
Apt Pupil1CD303x 0.00
Apt Pupil1CD1640x 0.00
Apt Pupil (1998)1CD182x 0.00miskon (a)
Interesantni linkovi
Svi titlovi za ovaj film na ovome jezikuSvi titlovi za ovaj film
Svi titlovi od ovog korisnikaZahtjev za ovim titlom za drugi release
O filmu:O filmu @ http://www.imdb.comPronađite datoteku:Apt Pupil downloadDownload warez
Release:Release @ http://www.btarena.orgRelease @ http://nfo.raidrush.wsTrejleri:Trejleri @ http://www.imdb.com
Posteri:Apt Pupil movie postersPosteri @ http://www.imdb.comOmoti:Omoti @ http://www.allcdcovers.comOmoti @ http://www.cdcovers.ccOmoti @ http://www.cdcovers.to
Drugi:Vaš link ovdje
Pojedinosti o filmuAKA:Savrseni ucenik (hrv), [h33t][imonline] (eng)
Ocjena filma:6.7 / 10 (29964)
[ If you don't believe in the existence of evil, you've got a lot to learn. ] - A boy blackmails his neighbour after suspecting him to be a Nazi war criminal.
Redatelj:
Ukloni reklamu
download subtitle