Missing Privacy  Support us:
X
Napredna pretraga
Gledaj filmove s titlovima preko Open Subtitles MKV Playera. Besplatan i čist, radi pod Windowsima.

Titlovi za film u HD-u

The Mechanic Hrvatski titlovi (2011) 1CD srt

film

Kupite na Amazonu

Pojedinosti o titlu

Preuzmi
Hvala

Ocijenite kvalitetu titlova

Ocijeni KVALITETU titlova s 1 bodova (ne valja)  Ocijeni KVALITETU titlova s 3 bodova (loše)  Ocijeni KVALITETU titlova s 5 bodova (srednje)  Ocijeni KVALITETU titlova s 7 bodova (dobro)  Ocijeni KVALITETU titlova s 10 bodova (odlično)

Komentar

Stream this movie on alluc.com

Naziv titlaThe.Mechanic.2011.BDRip.-NO.BLACK.BARS.Special-.HQ.Hive-CM8.HR.srt (41819bajtovi) prikaži pregled

Komentar pošiljaocaFormat : AVI
Format/Info : Audio Video Interleave
File size : 1.54 GiB
Duration : 1h 32mn
Overall bit rate : 2 390 Kbps
Writing application : Nandub v1.0rc2
Writing library : Nandub build 1853/release
Video
ID : 0
Format : MPEG-4 Visual
Format profile : Advanced Simple@L5
Format settings, BVOP : 2
Format settings, QPel : Yes
Format settings, GMC : No warppoints
Format settings, Matrix : Default (H.263)
Muxing mode : Packed bitstream
Codec ID : XVID
Codec ID/Hint : XviD
Duration : 1h 32mn
Bit rate : 1 933 Kbps
Width : 720 pixels
Height : 384 pixels
Display aspect ratio : 1.875
Frame rate : 24.000 fps
Color space : YUV
Chroma subsampling : 4:2:0
Bit depth : 8 bits
Scan type : Progressive
Compression mode : Lossy
Bits/(Pixel*Frame) : 0.291
Stream size : 1.24 GiB (81%)
Writing library : XviD 1.2.1 (UTC 2008-12-04)
Audio
ID : 1
Format : AC-3
Format/Info : Audio Coding 3
Mode extension : CM (complete main)
Codec ID : 2000
Duration : 1h 32mn
Bit rate mode : Constant
Bit rate : 448 Kbps
Channel(s) : 6 channels
Channel positions : Front: L C R, Side: L R, LFE
Sampling rate : 48.0 KHz
Bit depth : 16 bits
Compression mode : Lossy
Stream size : 295 MiB (19%)
Alignment : Split accross interleaves
Interleave, duration : 42 ms (1.00 video frame)
Interleave, preload duration : 500 ms
Ime distribucijeThe.Mechanic.2011.BDRip.-NO.BLACK.BARS.Special-.HQ.Hive-CM824.000 FPS
Pošiljalacigor116 @ . preuzeto18747x () . Ukloni iz najdražihDodaj među najdraže . Ispravi titloveIspravi titlove

Poslano s BSPlayer v2.56 kreirao bst2

Komentar

Prijava napisati komentar.

The Mechanic titlovi Hrvatski
Ime distribucije#CD PoslanoSkinutoOcjena titlaPošiljatelj
The Mechanic 2011 720p BRRip x264 MP4 Multisubs AAC-CC1CD133x 0.00
The Mechanic 720p1CD122x 0.00
The Mechanic 2011 XviD BRRip[Eng]-Vrxuniique-hrv(1)(2)(3)(... 1CD162x 0.00
The.Mechanic.2011.BluRay.720p.BrRip.YIFY1CD4459x 0.00
The.Mechanic1CD367x 0.00
Mechanic (2011)1CD280x 0.00
Mechanic.20111CD146x 0.00
The Mechanic1CD498x 0.00
The Mechanic 2010 BRRip XviD LTRG1CD633x 0.00
Interesantni linkovi
Svi titlovi za ovaj film na ovome jezikuSvi titlovi za ovaj film
Svi titlovi od ovog korisnikaZahtjev za ovim titlom za drugi release
O filmu:O filmu @ http://www.imdb.comPronađite datoteku:The Mechanic downloadThe Mechanic SevenTorrentsDownload warez
Release:Release @ http://www.btarena.orgRelease @ http://nfo.raidrush.wsSlužbeni sajt:CBS Films [us] | Official site [ar] | Official site [de] | Official site [es] | Official site [fr] | Official site [jp] | Official site [uk]
Trejleri:Trejleri @ http://www.imdb.comPosteri:The Mechanic movie postersPosteri @ http://www.imdb.com
Omoti:Omoti @ http://www.allcdcovers.comOmoti @ http://www.cdcovers.ccOmoti @ http://www.cdcovers.to
Titlovi:Titlovi @ https://hitsubtitles.comDrugi:Vaš link ovdje
Pojedinosti o filmuAKA:Ledeni ubojica (hrv), The Mechanic (eng), The Mechanic (PiZ) (eng), Механiк (eng)
Ocjena filma:6.6 / 10 (127792)
[ Someone has to fix the problems. ] - Follows an elite hit man as he teaches his trade to an apprentice who has a connection to one of his previous victims.
Redatelj:
Zemlja:
Jezik:
Ukloni reklamu
download subtitle