Detektiran je "Ad blocking", molimo podržite www.OpenSubtitles.org na neki drugi način
X
Napredna pretraga
Gledaj filmove s titlovima preko Open Subtitles MKV Playera. Besplatan i čist, radi pod Windowsima.
Većina ikona je aktivna, prijeđite mišem preko njih da biste doznali značenje
Ukloni reklamu

The Vikings Hrvatski titlovi (1958) 1CD srt

Preuzmi: The Vikings movie

film

Kupite na Amazonu

Pojedinosti o titlu

Preuzmi
Hvala2 hvala primljeno

Ocijenite kvalitetu titlova

Ocijeni KVALITETU titlova s 1 bodova (ne valja)  Ocijeni KVALITETU titlova s 3 bodova (loše)  Ocijeni KVALITETU titlova s 5 bodova (srednje)  Ocijeni KVALITETU titlova s 7 bodova (dobro)  Ocijeni KVALITETU titlova s 10 bodova (odlično)

Komentar

Zaboravite na web, preuzmite titlove upotrebom Open Subtitles MKV Player

Naziv titlaThe.Vikings.1958.iNTERNAL.DVDRiP.x264-tehPARADOX.HR.srt (50572bajtovi) prikaži pregled

Komentar pošiljaocaFormat : Matroska
File size : 1.91 GiB
Duration : 1h 56mn
Overall bit rate : 2 354 Kbps
Encoded date : UTC 2009-03-20 11:03:55
Writing application : mkvmerge v2.5.3 (''Boogie'') built on Mar 7 2009 15:00:41
Writing library : libebml v0.7.7 + libmatroska v0.8.1
Video
ID : 1
Format : AVC
Format/Info : Advanced Video Codec
Format profile : High@L4.1
Format settings, CABAC : Yes
Format settings, ReFrames : 3 frames
Codec ID : V_MPEG4/ISO/AVC
Duration : 1h 56mn
Bit rate : 2 159 Kbps
Width : 864 pixels
Height : 368 pixels
Display aspect ratio : 2.35:1
Frame rate : 23.976 fps
Color space : YUV
Chroma subsampling : 4:2:0
Bit depth : 8 bits
Scan type : Progressive
Bits/(Pixel*Frame) : 0.283
Stream size : 1.71 GiB (90%)
Title : The Vikings (1958) -=Ripped by smokey888-tehPARADOX.COM=-
Writing library : x264 core 67 r1127M 8d82fec
Encoding settings : cabac=1 / ref=3 / deblock=1:0:0 / analyse=0x3:0x113 / me=umh / subme=7 / psy_rd=1.0:0.0 / mixed_ref=1 / me_range=16 / chroma_me=1 / trellis=2 / 8x8dct=1 / cqm=0 / deadzone=21,11 / chroma_qp_offset=-2 / threads=3 / nr=0 / decimate=1 / mbaff=0 / bframes=3 / b_pyramid=0 / b_adapt=2 / b_bias=0 / direct=3 / wpredb=1 / keyint=250 / keyint_min=25 / scenecut=40 / rc=2pass / bitrate=2159 / ratetol=1.0 / qcomp=0.50 / qpmin=10 / qpmax=51 / qpstep=4 / cplxblur=20.0 / qblur=0.5 / vbv_maxrate=24000 / vbv_bufsize=24000 / ip_ratio=1.10 / pb_ratio=1.10 / aq=1:1.00
Language : English
Audio
ID : 2
Format : AC-3
Format/Info : Audio Coding 3
Mode extension : CM (complete main)
Codec ID : A_AC3
Duration : 1h 56mn
Bit rate mode : Constant
Bit rate : 192 Kbps
Channel(s) : 2 channels
Channel positions : Front: L R
Sampling rate : 48.0 KHz
Bit depth : 16 bits
Compression mode : Lossy
Stream size : 159 MiB (8%)
Title : English - The Vikings (1958) -=Ripped by smokey888-tehPARADOX.COM=-
Language : English
Ime distribucijeThe.Vikings.1958.iNTERNAL.DVDRiP.x264-tehPARADOX23.976 FPS
Pošiljalacigor116 @ . preuzeto208x () . Ukloni iz najdražihDodaj među najdraže . Ispravi titloveIspravi titlove

Poslano s BSPlayer v2.67 kreirao bst2

Komentar

Prijava napisati komentar.

Preuzmi The Vikings s 25 MBit
Doctor.Strange.2016.SLOSubs.BRRip.XviD-H (2360 MB) lethal.weapon.115.hdtv-lol[ettv].mkv (274 MB)
The.100.S04E03.HDTV.x264-xTV.mkv (305 MB) Six.S01E05.1080p.WEB-DL.AAC2.0.H264-RARB (1649 MB)
The Vikings titlovi Hrvatski
Ime distribucije#CD PoslanoSkinutoOcjena titlaPošiljatelj
The Vikings1CD635x 0.00
TheVikings1958DVDRipXviD1CD133x 0.00
Interesantni linkovi
Svi titlovi za ovaj film na ovome jezikuSvi titlovi za ovaj film
Svi titlovi od ovog korisnikaZahtjev za ovim titlom za drugi release
O filmu:O filmu @ http://www.imdb.comPronađite datoteku:The Vikings downloadDownload warez
Release:Release @ http://www.btarena.orgRelease @ http://nfo.raidrush.wsSlužbeni sajt:MGM
Trejleri:Trejleri @ http://www.imdb.comPosteri:The Vikings movie postersPosteri @ http://www.imdb.com
Omoti:Omoti @ http://www.allcdcovers.comOmoti @ http://www.cdcovers.ccOmoti @ http://www.cdcovers.to
Titlovi:Titlovi @ https://hitsubtitles.comDrugi:Vaš link ovdje
Pojedinosti o filmuAKA::The Vikings: (eng), :Vikings, The: (eng), Vikinzi (eng)
Ocjena filma:7.1 / 10 (9700)
[ The Terrible Northmen...Sailing on Dragon Ships Like Serpents on the Sea! Shouting a Battle-Cry to T ] - A slave and a Viking prince fight for the love of a captive princess.
Zemlja:
Jezik:
Ukloni reklamu
download subtitle