Missing Privacy  Support us:
X
Napredna pretraga
Gledaj filmove s titlovima preko Open Subtitles MKV Playera. Besplatan i čist, radi pod Windowsima.

Titlovi za film u HD-u

Gulliver's Travels Hrvatski titlovi (2010) 1CD srt

film

Kupite na Amazonu

Pojedinosti o titlu

Preuzmi
Hvala

Ocijenite kvalitetu titlova

Ocijeni KVALITETU titlova s 1 bodova (ne valja)  Ocijeni KVALITETU titlova s 3 bodova (loše)  Ocijeni KVALITETU titlova s 5 bodova (srednje)  Ocijeni KVALITETU titlova s 7 bodova (dobro)  Ocijeni KVALITETU titlova s 10 bodova (odlično)

Komentar

Naziv titlaGullivers.Travels.2010.BDRip.XVID.AC3.HQ.Hive-CM8.HR.srt (77183bajtovi) prikaži pregled

Komentar pošiljaocaFormat : AVI
Format/Info : Audio Video Interleave
File size : 1.33 GiB
Duration : 1h 24mn
Overall bit rate : 2 256 Kbps
Writing application : Nandub v1.0rc2
Writing library : Nandub build 1853/release
Video
ID : 0
Format : MPEG-4 Visual
Format profile : Advanced [email protected]
Format settings, BVOP : 2
Format settings, QPel : Yes
Format settings, GMC : No warppoints
Format settings, Matrix : Default (H.263)
Muxing mode : Packed bitstream
Codec ID : XVID
Codec ID/Hint : XviD
Duration : 1h 24mn
Bit rate : 1 799 Kbps
Width : 720 pixels
Height : 304 pixels
Display aspect ratio : 2.35:1
Frame rate : 23.976 fps
Color space : YUV
Chroma subsampling : 4:2:0
Bit depth : 8 bits
Scan type : Progressive
Compression mode : Lossy
Bits/(Pixel*Frame) : 0.343
Stream size : 1.06 GiB (80%)
Writing library : XviD 1.2.1 (UTC 2008-12-04)
Audio
ID : 1
Format : AC-3
Format/Info : Audio Coding 3
Mode extension : CM (complete main)
Codec ID : 2000
Duration : 1h 24mn
Bit rate mode : Constant
Bit rate : 448 Kbps
Channel(s) : 6 channels
Channel positions : Front: L C R, Side: L R, LFE
Sampling rate : 48.0 KHz
Bit depth : 16 bits
Compression mode : Lossy
Stream size : 271 MiB (20%)
Alignment : Split accross interleaves
Interleave, duration : 42 ms (1.00 video frame)
Interleave, preload duration : 500 ms
Ime distribucijeGullivers.Travels.2010.BDRip.XVID.AC3.HQ.Hive-CM823.976 FPS
Pošiljalacigor116 @ . preuzeto706x () . Ukloni iz najdražihDodaj među najdraže . Ispravi titloveIspravi titlove

Poslano s BSPlayer v2.56 kreirao bst2

Komentar

Prijava napisati komentar.

Gulliver's Travels titlovi Hrvatski
Ime distribucije#CD PoslanoSkinutoOcjena titlaPošiljatelj
Gulliver's travels (2010) 720p BluRay x264 AC3 DD5.1 ~ MICJD1CD131x 0.00
Gullivers.Travels.2010.BluRay.1080p.DTS.x264-CHD1CD1596x 0.00
Gulivers.Travels.2010.DVDRiP.XViD.AC3.D3MT1CD703x 0.00
niceguys-gullivers.travels.r5-xvid1CD3280x 0.00
Interesantni linkovi
Svi titlovi za ovaj film na ovome jezikuSvi titlovi za ovaj film
Svi titlovi od ovog korisnikaZahtjev za ovim titlom za drugi release
O filmu:O filmu @ http://www.imdb.comPronađite datoteku:Gulliver's Travels downloadGulliver's Travels SevenTorrentsDownload warez
Release:Release @ http://www.btarena.orgRelease @ http://nfo.raidrush.wsSlužbeni sajt:Official site | Official site [it] | Official site [jp]
Trejleri:Trejleri @ http://www.imdb.comPosteri:Gulliver's Travels movie postersPosteri @ http://www.imdb.com
Omoti:Omoti @ http://www.allcdcovers.comOmoti @ http://www.cdcovers.ccOmoti @ http://www.cdcovers.to
Titlovi:Titlovi @ http://subtitles.movieDrugi:Vaš link ovdje
Pojedinosti o filmuAKA:Gulliverova putovanja (hrv), Gulliver's Travels (eng), Мандри Гулiвера (eng)
Ocjena filma:4.9 / 10 (55825)
[ Black is the new big ] - Travel writer Lemuel Gulliver takes an assignment in Bermuda, but ends up on the island of Liliput, where he towers over its tiny citizens.
Redatelj:
Zemlja:
Jezik:
download subtitle