Missing Privacy  Support us:
X
Napredna pretraga
Gledaj filmove s titlovima preko Open Subtitles MKV Playera. Besplatan i čist, radi pod Windowsima.

Legends of the Fall Hrvatski titlovi (1994) 1CD srt

film

Kupite na Amazonu

Pojedinosti o titlu

Preuzmi
Hvala

Ocijenite kvalitetu titlova

Ocijeni KVALITETU titlova s 1 bodova (ne valja)  Ocijeni KVALITETU titlova s 3 bodova (loše)  Ocijeni KVALITETU titlova s 5 bodova (srednje)  Ocijeni KVALITETU titlova s 7 bodova (dobro)  Ocijeni KVALITETU titlova s 10 bodova (odlično)

Komentar

Stream this movie on alluc.com

Naziv titlaLegends of the Fall.HR.srt (75005bajtovi) prikaži pregled

Komentar pošiljaocaFormat : AVI
Format/Info : Audio Video Interleave
File size : 699 MiB
Duration : 2h 12mn
Overall bit rate : 735 Kbps
Writing application : FairUse Wizard - fairusewizard.com
Writing library : The best and REALLY easy backup tool
Video
ID : 0
Format : MPEG-4 Visual
Format profile : Advanced [email protected]
Format settings, BVOP : 1
Format settings, QPel : No
Format settings, GMC : No warppoints
Format settings, Matrix : Default (H.263)
Muxing mode : Packed bitstream
Codec ID : XVID
Codec ID/Hint : XviD
Duration : 2h 12mn
Bit rate : 598 Kbps
Width : 496 pixels
Height : 272 pixels
Display aspect ratio : 16:9
Frame rate : 23.976 fps
Color space : YUV
Chroma subsampling : 4:2:0
Bit depth : 8 bits
Scan type : Progressive
Compression mode : Lossy
Bits/(Pixel*Frame) : 0.185
Stream size : 568 MiB (81%)
Writing library : XviD 1.1.0 (UTC 2005-11-22)
Audio
ID : 1
Format : MPEG Audio
Format version : Version 1
Format profile : Layer 3
Mode : Joint stereo
Codec ID : 55
Codec ID/Hint : MP3
Duration : 2h 12mn
Bit rate mode : Constant
Bit rate : 128 Kbps
Channel(s) : 2 channels
Sampling rate : 48.0 KHz
Compression mode : Lossy
Stream size : 122 MiB (17%)
Alignment : Aligned on interleaves
Interleave, duration : 42 ms (1.00 video frame)
Interleave, preload duration : 504 ms
Writing library : LAME3.97b
Encoding settings : -m j -V 4 -q 2 -lowpass 17 -b 128
Ime distribucijeLegends of the Fall.avi23.976 FPS
Pošiljalacigor116 @ . preuzeto304x () . Ukloni iz najdražihDodaj među najdraže . Ispravi titloveIspravi titlove

Poslano s SubDownloader 1.2.9 kreirao capiscuas

Komentar

Prijava napisati komentar.

Legends of the Fall titlovi Hrvatski
Ime distribucije#CD PoslanoSkinutoOcjena titlaPošiljatelj
Full Blu Ray / 720p x264 [Ceroks DHM]1CD124x 0.00titlovic
Legends.Of.The.Fall.1994.720p.BRRip.H264.AAC-GreatMagician1CD1541x 0.00pipic2975
Legends1CD679x 0.00
Legends of the Fall (1994) Blu Ray1CD5462x 0.00
Legends of the Fall1CD119x 0.00
Legends of the Fall (1994)2CD1102x 0.00kljukec1 (a)
Interesantni linkovi
Svi titlovi za ovaj film na ovome jezikuSvi titlovi za ovaj film
Svi titlovi od ovog korisnikaZahtjev za ovim titlom za drugi release
O filmu:O filmu @ http://www.imdb.comPronađite datoteku:Legends of the Fall downloadLegends of the Fall SevenTorrentsDownload warez
Release:Release @ http://www.btarena.orgRelease @ http://nfo.raidrush.wsTrejleri:Trejleri @ http://www.imdb.com
Posteri:Legends of the Fall movie postersPosteri @ http://www.imdb.comOmoti:Omoti @ http://www.allcdcovers.comOmoti @ http://www.cdcovers.ccOmoti @ http://www.cdcovers.to
Drugi:Vaš link ovdje
Pojedinosti o filmuAKA:Legenda o jeseni (hrv), Legends of the Fall (eng)
Ocjena filma:7.5 / 10 (119930)
[ After the Fall from Innocence the Legend begins. ] - In the 1900s, three brothers and their father living in the remote wilderness of Montana are affected by betrayal, history, love, nature, and war.
Redatelj:
Zemlja:
download subtitle