Missing Privacy  Support us:
X
Napredna pretraga
Gledaj filmove s titlovima preko Open Subtitles MKV Playera. Besplatan i čist, radi pod Windowsima.

K-PAX Hrvatski titlovi (2001) 1CD srt

film

Kupite na Amazonu

Pojedinosti o titlu

Preuzmi
Hvala

Ocijenite kvalitetu titlova

Ocijeni KVALITETU titlova s 1 bodova (ne valja)  Ocijeni KVALITETU titlova s 3 bodova (loše)  Ocijeni KVALITETU titlova s 5 bodova (srednje)  Ocijeni KVALITETU titlova s 7 bodova (dobro)  Ocijeni KVALITETU titlova s 10 bodova (odlično)

Komentar

Stream this movie on alluc.com

Naziv titlaK-Pax [2001][AC3 5.1][DVDRip]-3L3uth3ri0S.HR.srt (81175bajtovi) prikaži pregled

Komentar pošiljaocaFormat : AVI
Format/Info : Audio Video Interleave
File size : 1.08 GiB
Duration : 1h 55mn
Overall bit rate : 1 336 Kbps
Writing application : VirtualDubMod 1.5.4.1 (build 2178/release)
Writing library : VirtualDubMod build 2178/release
Video
ID : 0
Format : MPEG-4 Visual
Format profile : Advanced [email protected]
Format settings, BVOP : 1
Format settings, QPel : No
Format settings, GMC : No warppoints
Format settings, Matrix : Custom
Codec ID : XVID
Codec ID/Hint : XviD
Duration : 1h 55mn
Bit rate : 881 Kbps
Width : 704 pixels
Height : 304 pixels
Display aspect ratio : 2.35:1
Frame rate : 25.000 fps
Color space : YUV
Chroma subsampling : 4:2:0
Bit depth : 8 bits
Scan type : Progressive
Compression mode : Lossy
Bits/(Pixel*Frame) : 0.165
Stream size : 726 MiB (66%)
Writing library : XviD 1.2.0.dev47 (UTC 2006-11-01)
Audio
ID : 1
Format : AC-3
Format/Info : Audio Coding 3
Mode extension : CM (complete main)
Codec ID : 2000
Duration : 1h 55mn
Bit rate mode : Constant
Bit rate : 448 Kbps
Channel(s) : 6 channels
Channel positions : Front: L C R, Side: L R, LFE
Sampling rate : 48.0 KHz
Bit depth : 16 bits
Compression mode : Lossy
Stream size : 369 MiB (34%)
Alignment : Aligned on interleaves
Interleave, duration : 96 ms (2.40 video frames)
Interleave, preload duration : 96 ms
Ime distribucijeK-Pax [2001][AC3 5.1][DVDRip]-3L3uth3ri0S25.000 FPS
Pošiljalacigor116 @ . preuzeto594x () . Ukloni iz najdražihDodaj među najdraže . Ispravi titloveIspravi titlove

Poslano s BSPlayer v2.57 kreirao bst2

Komentar

Prijava napisati komentar.

K-PAX titlovi Hrvatski
Ime distribucije#CD PoslanoSkinutoOcjena titlaPošiljatelj
720p.HDTV.x264-YIFY1CD237x 0.00titlovic
K-PAX cd22CD36x 0.00titlovic
K-PAX cd21CD76x 0.00
k-pax1CD743x 0.00titlovic
Q - PAK1CD3935x 0.00titlovic
K-PAX (2001)1CD1274x 0.00Mlac (a)
K-Pax2CD141x 0.00tomislav-gea-ek (a)
K-PAX (2001)2CD159x 0.00chiquitto (a)
K-PAX (2001)2CD274x 0.00zagreb1974 (a)
Interesantni linkovi
Svi titlovi za ovaj film na ovome jezikuSvi titlovi za ovaj film
Svi titlovi od ovog korisnikaZahtjev za ovim titlom za drugi release
O filmu:O filmu @ http://www.imdb.comPronađite datoteku:K-PAX downloadDownload warez
Release:Release @ http://www.btarena.orgRelease @ http://nfo.raidrush.wsSlužbeni sajt:k-pax.com - requires Flash 5
Trejleri:Trejleri @ http://www.imdb.comPosteri:K-PAX movie postersposter at movieposters.2038.netPosteri @ http://www.imdb.com
Omoti:Omoti @ http://www.allcdcovers.comOmoti @ http://www.cdcovers.ccOmoti @ http://www.cdcovers.to
Titlovi:Titlovi @ https://hitsubtitles.comDrugi:Vaš link ovdje
Pojedinosti o filmuAKA:K-PAX (eng), Планета Ка-ПЕКС (eng)
Ocjena filma:7.4 / 10 (156900)
[ Is he crazy?...or is he light years ahead of us? ] - PROT is a patient at a mental hospital who claims to be from a far away planet. His psychiatrist tries to help him, only to begin to doubt his own explanations.
Redatelj:
Zemlja:
Jezik:
download subtitle