Missing Privacy  Support us:
X
Napredna pretraga
Gledaj filmove s titlovima preko Open Subtitles MKV Playera. Besplatan i čist, radi pod Windowsima.
Preporučujemo vam da posjetite linkove u sekciji zanimljivi linkovi
Ukloni reklamu

Contact Hrvatski titlovi (1997) 1CD srt

Preuzmi: Contact movie

film

Kupite na Amazonu

Pojedinosti o titlu

Preuzmi
Hvala

Ocijenite kvalitetu titlova

Ocijeni KVALITETU titlova s 1 bodova (ne valja)  Ocijeni KVALITETU titlova s 3 bodova (loše)  Ocijeni KVALITETU titlova s 5 bodova (srednje)  Ocijeni KVALITETU titlova s 7 bodova (dobro)  Ocijeni KVALITETU titlova s 10 bodova (odlično)

Komentar

Stream this movie on alluc.com

Naziv titlaContact (1997) [DVDRip].HR.srt (128658bajtovi) prikaži pregled

Komentar pošiljaocaFormat : AVI
Format/Info : Audio Video Interleave
File size : 710 MiB
Duration : 2h 15mn
Overall bit rate : 731 Kbps
Writing library : VirtualDub build 12667/release
Video
ID : 0
Format : MPEG-4 Visual
Codec ID : DIV3
Codec ID/Hint : DivX 3 Low
Duration : 2h 15mn
Bit rate : 628 Kbps
Width : 640 pixels
Height : 352 pixels
Display aspect ratio : 16:9
Frame rate : 25.000 fps
Color space : YUV
Chroma subsampling : 4:2:0
Bit depth : 8 bits
Bits/(Pixel*Frame) : 0.112
Stream size : 610 MiB (86%)
Audio
ID : 1
Format : MPEG Audio
Format version : Version 1
Format profile : Layer 3
Mode : Joint stereo
Mode extension : Intensity Stereo
Codec ID : 55
Codec ID/Hint : MP3
Duration : 2h 15mn
Bit rate mode : Constant
Bit rate : 96.0 Kbps
Channel(s) : 2 channels
Sampling rate : 44.1 KHz
Stream size : 93.2 MiB (13%)
Alignment : Split accross interleaves
Interleave, duration : 100 ms (2.50 video frames)
Interleave, preload duration : 500 ms
Ime distribucijeContact (1997) [DVDRip]25.000 FPS
Pošiljalacigor116 @ . preuzeto1755x () . Ukloni iz najdražihDodaj među najdraže . Ispravi titloveIspravi titlove

Poslano s BSPlayer v2.61 kreirao bst2

Komentar

Prijava napisati komentar.

Preuzmi Contact s 25 MBit
The.Edge.of.Seventeen.2016.720p.BluRay.D (5817 MB) The.100.2017.S04.E03.HDTV.x264-SVA.mkv (305 MB)
Shut.In.2016.BluRay.720p.x264.DTS-HDChin (4392 MB) Lion.2016.DVDScr.XVID.AC3.HQ.Hive-CM8.av (1871 MB)
Contact titlovi Hrvatski
Ime distribucije#CD PoslanoSkinutoOcjena titlaPošiljatelj
Contact.1997.1080p.BluRay.x264.YIFY1CD1247x 0.00
Kontakt (2005)1CD44x 0.00titlovic
DVDRiP.AC32CD24x 0.00titlovic
Contact.1997.DVDRiP.AC3.cd21CD464x 0.00
Contact 1997 DvDrip Eng-kirklestat1CD550x 0.00
Contact (1997)1CD4733x 0.00BetaMAN (a)
Contact (1997)1CD812x 0.00BetaMAN (a)
Contact1CD444x 0.00mkos (a)
Interesantni linkovi
Svi titlovi za ovaj film na ovome jezikuSvi titlovi za ovaj film
Svi titlovi od ovog korisnikaZahtjev za ovim titlom za drugi release
O filmu:O filmu @ http://www.imdb.comPronađite datoteku:Contact downloadContact SevenTorrentsDownload warez
Release:Release @ http://www.btarena.orgRelease @ http://nfo.raidrush.wsSlužbeni sajt:Warner Bros. [us]
Trejleri:Trejleri @ http://www.imdb.comPosteri:Contact movie postersPosteri @ http://www.imdb.com
Omoti:Omoti @ http://www.allcdcovers.comOmoti @ http://www.cdcovers.ccOmoti @ http://www.cdcovers.to
Titlovi:Titlovi @ https://hitsubtitles.comDrugi:Vaš link ovdje
Pojedinosti o filmuAKA:Kontakt (hrv), Contact (eng)
Ocjena filma:7.4 / 10 (207788)
[ If it's just us, it seems like an awful waste of space. ] - Dr. Ellie Arroway, after years of searching, finds conclusive radio proof of intelligent aliens, who send plans for a mysterious machine.
Scenarij:
Zemlja:
Ukloni reklamu
download subtitle