Missing Privacy  Support us:
X
Napredna pretraga
Gledaj filmove s titlovima preko Open Subtitles MKV Playera. Besplatan i čist, radi pod Windowsima.
Preporučujemo vam da posjetite linkove u sekciji zanimljivi linkovi
Ukloni reklamu

Dracula III: Legacy Hrvatski titlovi (2005) 1CD srt

Preuzmi: Dracula III: Legacy movie

film

Kupite na Amazonu

Pojedinosti o titlu

Preuzmi
Hvala

Ocijenite kvalitetu titlova

Ocijeni KVALITETU titlova s 1 bodova (ne valja)  Ocijeni KVALITETU titlova s 3 bodova (loše)  Ocijeni KVALITETU titlova s 5 bodova (srednje)  Ocijeni KVALITETU titlova s 7 bodova (dobro)  Ocijeni KVALITETU titlova s 10 bodova (odlično)

Komentar

Zaboravite na web, preuzmite titlove upotrebom Open Subtitles MKV Player

Naziv titlaDracula III Legacy.HR.srt (48959bajtovi) prikaži pregled

Komentar pošiljaocaFormat : AVI
Format/Info : Audio Video Interleave
Format settings : rec
File size : 699 MiB
Duration : 1h 30mn
Overall bit rate : 1 081 Kbps
Video
ID : 0
Format : MPEG-4 Visual
Format profile : [email protected]
Format settings, BVOP : Yes
Format settings, QPel : No
Format settings, GMC : No warppoints
Format settings, Matrix : Default (MPEG)
Codec ID : XVID
Codec ID/Hint : XviD
Duration : 1h 30mn
Bit rate : 940 Kbps
Width : 640 pixels
Height : 272 pixels
Display aspect ratio : 2.35:1
Frame rate : 23.976 fps
Color space : YUV
Chroma subsampling : 4:2:0
Bit depth : 8 bits
Scan type : Progressive
Bits/(Pixel*Frame) : 0.225
Stream size : 608 MiB (87%)
Writing library : XviD 1.0.0 (UTC 2004-05-09)
Audio
ID : 1
Format : MPEG Audio
Format version : Version 1
Format profile : Layer 3
Mode : Joint stereo
Mode extension : MS Stereo
Codec ID : 55
Codec ID/Hint : MP3
Duration : 1h 30mn
Bit rate mode : Variable
Bit rate : 128 Kbps
Channel(s) : 2 channels
Sampling rate : 48.0 KHz
Stream size : 82.8 MiB (12%)
Alignment : Aligned on interleaves
Interleave, duration : 24 ms (0.58 video frame)
Interleave, preload duration : 150 ms
Title : 3
Writing library : LAME3.93
Encoding settings : -m j -V 1 -q 2 -lowpass 19.5 --abr 128
Ime distribucijeDracula III Legacy.NoScene23.976 FPS
Pošiljalacigor116 @ . preuzeto81x () . Ukloni iz najdražihDodaj među najdraže . Ispravi titloveIspravi titlove

Poslano s BSPlayer v2.64 kreirao bst2

Komentar

Prijava napisati komentar.

Preuzmi Dracula III: Legacy s 25 MBit
Greys.Anatomy.S13E15.HDTV.x264-LOL[eztv] (266 MB) Lethal.Weapon.S01E17.720p.HDTV.X264-DIME (900 MB)
Marvels.Iron.Fist.S01E03.WEB.X264-DEFLAT (446 MB) elementary.516.hdtv-lol.mkv (196 MB)
Dracula III: Legacy titlovi Hrvatski
Ime distribucije#CD PoslanoSkinutoOcjena titlaPošiljatelj
dracula 3 legacy1CD51x 0.00titlovic
Dracula III: Legacy (2004)1CD275x 0.00piroman (a)
Interesantni linkovi
Svi titlovi za ovaj film na ovome jezikuSvi titlovi za ovaj film
Svi titlovi od ovog korisnikaZahtjev za ovim titlom za drugi release
O filmu:O filmu @ http://www.imdb.comPronađite datoteku:Dracula III: Legacy downloadDownload warez
Release:Release @ http://www.btarena.orgRelease @ http://nfo.raidrush.wsSlužbeni sajt:Official site
Trejleri:Trejleri @ http://www.imdb.comPosteri:Dracula III: Legacy movie postersPosteri @ http://www.imdb.com
Omoti:Omoti @ http://www.allcdcovers.comOmoti @ http://www.cdcovers.ccOmoti @ http://www.cdcovers.to
Titlovi:Titlovi @ https://hitsubtitles.comDrugi:Vaš link ovdje
Pojedinosti o filmuAKA:Dracula 3 (eng), Dracula: Resurrected (eng)
Ocjena filma:4.7 / 10 (2166)
[ ] - In the near future, Uffizi and Luke travel to the remote reaches of war torn Romania to rescue Elizabeth and finish the vampire once and for all. Along the way, they encounter TV news journalist and a corps of rebels trying to fight the vampire uprising which plagues their country.
Žanr:
Zemlja:
Ukloni reklamu
download subtitle