Detektiran je "Ad blocking", molimo podržite www.OpenSubtitles.org na neki drugi način
X
Napredna pretraga
Ukloni reklamu

Avenging Angelo Hrvatski titlovi (2002) 1CD srt

film

Kupite na Amazonu

Pojedinosti o titlu

Preuzmi
Hvala

Ocijenite kvalitetu titlova

Ocijeni KVALITETU titlova s 1 bodova (ne valja)  Ocijeni KVALITETU titlova s 3 bodova (loše)  Ocijeni KVALITETU titlova s 5 bodova (srednje)  Ocijeni KVALITETU titlova s 7 bodova (dobro)  Ocijeni KVALITETU titlova s 10 bodova (odlično)

Komentar

Add subtitles to your movies with Freemake Video Converter

Naziv titlaAvenging Angelo [2002][AC3 5.1][DVDRip]-3L3uth3ri0S.HR.srt (91868bajtovi) prikaži pregled

Komentar pošiljaocaFormat : AVI
Format/Info : Audio Video Interleave
File size : 751 MiB
Duration : 1h 34mn
Overall bit rate : 1 114 Kbps
Writing application : VirtualDubMod 1.5.4.1 (build 2178/release)
Writing library : VirtualDubMod build 2178/release
Video
ID : 0
Format : MPEG-4 Visual
Format profile : Advanced Simple@L5
Format settings, BVOP : Yes
Format settings, QPel : No
Format settings, GMC : No warppoints
Format settings, Matrix : Custom
Codec ID : XVID
Codec ID/Hint : XviD
Duration : 1h 34mn
Bit rate : 726 Kbps
Width : 720 pixels
Height : 320 pixels
Display aspect ratio : 2.25:1
Frame rate : 25.000 fps
Color space : YUV
Chroma subsampling : 4:2:0
Bit depth : 8 bits
Scan type : Progressive
Bits/(Pixel*Frame) : 0.126
Stream size : 489 MiB (65%)
Writing library : XviD 1.2.0.dev47 (UTC 2006-11-01)
Audio
ID : 1
Format : AC-3
Format/Info : Audio Coding 3
Mode extension : CM (complete main)
Codec ID : 2000
Duration : 1h 33mn
Bit rate mode : Constant
Bit rate : 384 Kbps
Channel(s) : 6 channels
Channel positions : Front: L C R, Side: L R, LFE
Sampling rate : 48.0 KHz
Bit depth : 16 bits
Stream size : 257 MiB (34%)
Alignment : Aligned on interleaves
Interleave, duration : 97 ms (2.42 video frames)
Interleave, preload duration : 96 ms
Ime distribucijeAvenging Angelo [2002][AC3 5.1][DVDRip]-3L3uth3ri0S25.000 FPS
Pošiljalacigor116 @ . preuzeto208x () . Ukloni iz najdražihDodaj među najdraže . Ispravi titloveIspravi titlove

Poslano s SubDownloader 1.2.9 kreirao capiscuas

Komentar

Prijava napisati komentar.

Avenging Angelo titlovi Hrvatski
Ime distribucije#CD PoslanoSkinutoOcjena titlaPošiljatelj
avenging angelo1CD36x 0.00titlovic
Avenging angelo1CD51x 0.00
Avenging Angelo1CD246x 0.00
Interesantni linkovi
Svi titlovi za ovaj film na ovome jezikuSvi titlovi za ovaj film
Svi titlovi od ovog korisnikaZahtjev za ovim titlom za drugi release
O filmu:O filmu @ http://www.imdb.comPronađite datoteku:Download Avenging AngeloAvenging Angelo watch online for freeAvenging Angelo downloadDownload warez
Release:Release @ http://www.btarena.orgRelease @ http://nfo.raidrush.wsTrejleri:Trejleri @ http://www.imdb.com
Posteri:Avenging Angelo movie postersPosteri @ http://www.imdb.comOmoti:Omoti @ https://www.allcdcovers.comOmoti @ http://www.cdcovers.ccOmoti @ http://www.cdcovers.to
Drugi:Vaš link ovdje
Pojedinosti o filmuAKA:Osveta na mafijaški način (hrv)
Ocjena filma:5.2 / 10 (7532)
[ Her life is his job. ] - A woman who has just discovered she is the daughter of a murdered Mafia chieftain seeks revenge, with the aide of her father's faithful bodyguard.
Redatelj:
Scenarij:
Jezik:
Ukloni reklamu
download subtitle