Detektiran je "Ad blocking", molimo podržite www.OpenSubtitles.org na neki drugi način
X
Napredna pretraga
Ukloni reklamu

Air Force One Hrvatski titlovi (1997) 1CD srt

film

Kupite na Amazonu

Pojedinosti o titlu

Preuzmi
Hvala

Ocijenite kvalitetu titlova

Ocijeni KVALITETU titlova s 1 bodova (ne valja)  Ocijeni KVALITETU titlova s 3 bodova (loše)  Ocijeni KVALITETU titlova s 5 bodova (srednje)  Ocijeni KVALITETU titlova s 7 bodova (dobro)  Ocijeni KVALITETU titlova s 10 bodova (odlično)

Komentar

Stream this movie on alluc.com

Naziv titlaAir.Force.One.1997.PROPER.DVDRip.XviD-SAPHiRE.HR.srt (70622bajtovi) prikaži pregled

Komentar pošiljaocaFormat : AVI
Format/Info : Audio Video Interleave
Format settings : rec
File size : 701 MiB
Duration : 2h 4mn
Overall bit rate : 787 Kbps
Video
ID : 0
Format : MPEG-4 Visual
Format profile : Simple@L3
Format settings, BVOP : No
Format settings, QPel : No
Format settings, GMC : No warppoints
Format settings, Matrix : Default (H.263)
Codec ID : XVID
Codec ID/Hint : XviD
Duration : 2h 4mn
Bit rate : 612 Kbps
Width : 576 pixels
Height : 240 pixels
Display aspect ratio : 2.40:1
Frame rate : 23.976 fps
Color space : YUV
Chroma subsampling : 4:2:0
Bit depth : 8 bits
Scan type : Progressive
Bits/(Pixel*Frame) : 0.185
Stream size : 545 MiB (78%)
Writing library : XviD 0.0.09 (UTC 2003-03-25)
Audio
ID : 1
Format : MPEG Audio
Format version : Version 1
Format profile : Layer 3
Mode : Joint stereo
Mode extension : MS Stereo
Codec ID : 55
Codec ID/Hint : MP3
Duration : 2h 4mn
Bit rate mode : Variable
Bit rate : 163 Kbps
Minimum bit rate : 128 Kbps
Channel(s) : 2 channels
Sampling rate : 48.0 KHz
Stream size : 145 MiB (21%)
Alignment : Aligned on interleaves
Interleave, duration : 24 ms (0.58 video frame)
Interleave, preload duration : 458 ms
Writing library : LAME3.93
Encoding settings : -m j -V 1 -q 2 -lowpass 19.6 --vbr-new -b 128
Ime distribucijeAir.Force.One.1997.PROPER.DVDRip.XviD-SAPHiRE23.976 FPS
Pošiljalacigor116 @ . preuzeto299x () . Ukloni iz najdražihDodaj među najdraže . Ispravi titloveIspravi titlove

Poslano s SubDownloader 1.2.9 kreirao capiscuas

Komentar

Prijava napisati komentar.

Air Force One titlovi Hrvatski
Ime distribucije#CD PoslanoSkinutoOcjena titlaPošiljatelj
Air.Force.One.1997.1080p.BRrip.x264.YIFY-hrv(2)1CD68x 0.00djbuza
Air Force One1CD99x 0.00
Air.Force.One.1997.DVD5.720p.bluray.x264-hv1CD127x 0.00
Air Force One strana B2CD49x 0.00titlovic
Air.Force.One.1997.XviD.AC3-EDRP.2CD2CD212x 0.00azanjk (a)
Air Force One (1997)1CD3202x 3.00Foreign Breed (a)
Air Force One2CD82x 0.00lijepi (a)
Interesantni linkovi
Svi titlovi za ovaj film na ovome jezikuSvi titlovi za ovaj film
Svi titlovi od ovog korisnikaZahtjev za ovim titlom za drugi release
O filmu:O filmu @ http://www.imdb.comPronađite datoteku:Download Air Force OneAir Force One watch online for freeAir Force One downloadDownload warez
Release:Release @ http://www.btarena.orgRelease @ http://nfo.raidrush.wsTrejleri:Trejleri @ http://www.imdb.com
Posteri:Air Force One movie postersposter at movieposters.2038.netPosteri @ http://www.imdb.comOmoti:Omoti @ https://www.allcdcovers.comOmoti @ http://www.cdcovers.ccOmoti @ http://www.cdcovers.to
Drugi:Vaš link ovdje
Pojedinosti o filmuAKA:Air Force One (eng)
Ocjena filma:6.5 / 10 (155813)
[ The fate of a nation rests on the courage of one man. ] - Hijackers seize the plane carrying the President of the United States and his family, but he - an ex-soldier - works from hiding to defeat them.
Zemlja:
Ukloni reklamu
download subtitle