Missing Privacy  Support us:
X
Napredna pretraga
Gledaj filmove s titlovima preko Open Subtitles MKV Playera. Besplatan i čist, radi pod Windowsima.
Za pretragu svih odgovarajućih titlova jednostavno kliknite na ime
Ukloni reklamu

The Fighter Hrvatski titlovi (2010) 2CD srt

Preuzmi: The Fighter movie

film

Kupite na Amazonu

Pojedinosti o titlu

Preuzmi
Hvala

Ocijenite kvalitetu titlova

Ocijeni KVALITETU titlova s 1 bodova (ne valja)  Ocijeni KVALITETU titlova s 3 bodova (loše)  Ocijeni KVALITETU titlova s 5 bodova (srednje)  Ocijeni KVALITETU titlova s 7 bodova (dobro)  Ocijeni KVALITETU titlova s 10 bodova (odlično)

Komentar

Stream this movie on alluc.com

Naziv titlaThe.Fighter.2010.DVDRip.XviD-AMIABLE.cd1.HR.srt (64083bajtovi) prikaži pregledNaziv titlaThe.Fighter.2010.DVDRip.XviD-AMIABLE.cd2.HR.srt (52153bajtovi) prikaži pregled

Komentar pošiljaocaFormat : AVI
Format/Info : Audio Video Interleave
File size : 699 MiB
Duration : 1h 3mn
Overall bit rate : 1 535 Kbps
Writing application : VirtualDubMod 1.5.10.2 (build 2540/release)
Writing library : VirtualDubMod build 2540/release
segm :
Video
ID : 0
Format : MPEG-4 Visual
Format profile : Advanced [email protected]
Format settings, BVOP : Yes
Format settings, QPel : No
Format settings, GMC : No warppoints
Format settings, Matrix : Default (H.263)
Muxing mode : Packed bitstream
Codec ID : XVID
Codec ID/Hint : XviD
Duration : 1h 3mn
Bit rate : 1 077 Kbps
Width : 608 pixels
Height : 256 pixels
Display aspect ratio : 2.35:1
Frame rate : 23.976 fps
Color space : YUV
Chroma subsampling : 4:2:0
Bit depth : 8 bits
Scan type : Progressive
Bits/(Pixel*Frame) : 0.289
Stream size : 491 MiB (70%)
Writing library : XviD 57
Audio
ID : 1
Format : AC-3
Format/Info : Audio Coding 3
Mode extension : CM (complete main)
Codec ID : 2000
Duration : 1h 3mn
Bit rate mode : Constant
Bit rate : 448 Kbps
Channel(s) : 6 channels
Channel positions : Front: L C R, Side: L R, LFE
Sampling rate : 48.0 KHz
Bit depth : 16 bits
Stream size : 204 MiB (29%)
Alignment : Split accross interleaves
Interleave, duration : 42 ms (1.00 video frame)
Interleave, preload duration : 500 ms
Ime distribucijeThe.Fighter.2010.DVDRip.XviD-AMIABLE23.976 FPS
Pošiljalacigor116 @ . preuzeto182x () . Ukloni iz najdražihDodaj među najdraže . Ispravi titloveIspravi titlove

Poslano s SubDownloader 1.2.9 kreirao capiscuas

Komentar

Prijava napisati komentar.

Preuzmi The Fighter s 25 MBit
Vikings.S04E11.HDTV.x264-KILLERS.mkv (314 MB) Shooter.S01E03.HDTV.x264-FLEET.mkv (220 MB)
The.Walking.Dead.S07E06.HDTV.x264-DEFiNE (544 MB) Inferno.2016.Blurred.HDRip.X264.AC3.RoSu (1466 MB)
The Fighter titlovi Hrvatski
Ime distribucije#CD PoslanoSkinutoOcjena titlaPošiljatelj
DvDrip[Eng]-FXG1CD643x 0.00titlovic
DVDRip.XviD-MoA1CD22x 0.00titlovic
The Fighter[2010]DvDrip[Eng]-FXG1CD6219x 0.00
8906F5AEE2657C4624B2A80B943866B7The Fighter.srt_365229371CD416x 0.00
5AE29F11BDE1810231BBBED9CCBCE3AFThe Fighter 2010 SCR XViD ... 1CD1080x 0.00
Interesantni linkovi
Svi titlovi za ovaj film na ovome jezikuSvi titlovi za ovaj film
Svi titlovi od ovog korisnikaZahtjev za ovim titlom za drugi release
O filmu:O filmu @ http://www.imdb.comPronađite datoteku:The Fighter downloadThe Fighter SevenTorrentsDownload warez
Release:Release @ http://www.btarena.orgRelease @ http://nfo.raidrush.wsSlužbeni sajt:Official site | Official site [fr] | Official site [jp]
Trejleri:Trejleri @ http://www.imdb.comPosteri:The Fighter movie postersPosteri @ http://www.imdb.com
Omoti:Omoti @ http://www.allcdcovers.comOmoti @ http://www.cdcovers.ccOmoti @ http://www.cdcovers.to
Titlovi:Titlovi @ https://hitsubtitles.comDrugi:Vaš link ovdje
Pojedinosti o filmuAKA:Boksac (hrv), The Fighter (eng)
Ocjena filma:7.9 / 10 (278922)
[ Every dream deserves a fighting chance. ] - A look at the early years of boxer "Irish" Micky Ward and his brother who helped train him before going pro in the mid 1980s.
Zemlja:
Jezik:
Ukloni reklamu
download subtitle