Missing Privacy  Support us:
X
Napredna pretraga
Gledaj filmove s titlovima preko Open Subtitles MKV Playera. Besplatan i čist, radi pod Windowsima.
Ukloni reklamu

Air America Hrvatski titlovi (1990) 1CD srt

film

Kupite na Amazonu

Pojedinosti o titlu

Preuzmi
Hvala

Ocijenite kvalitetu titlova

Ocijeni KVALITETU titlova s 1 bodova (ne valja)  Ocijeni KVALITETU titlova s 3 bodova (loše)  Ocijeni KVALITETU titlova s 5 bodova (srednje)  Ocijeni KVALITETU titlova s 7 bodova (dobro)  Ocijeni KVALITETU titlova s 10 bodova (odlično)

Komentar

Stream this movie on alluc.com

Naziv titlaAir America (1990) [DVDRip].HR.srt (59663bajtovi) prikaži pregled

Komentar pošiljaocaFormat : AVI
Format/Info : Audio Video Interleave
File size : 702 MiB
Duration : 1h 47mn
Overall bit rate : 915 Kbps
Writing application : VirtualDubMod 1.5.4.1 (build 2178/release)
Writing library : VirtualDubMod build 2178/release
Video
ID : 0
Format : MPEG-4 Visual
Format profile : Advanced [email protected]
Format settings, BVOP : Yes
Format settings, QPel : No
Format settings, GMC : No warppoints
Format settings, Matrix : Custom
Codec ID : XVID
Codec ID/Hint : XviD
Duration : 1h 47mn
Bit rate : 784 Kbps
Width : 608 pixels
Height : 272 pixels
Display aspect ratio : 2.25:1
Frame rate : 25.000 fps
Color space : YUV
Chroma subsampling : 4:2:0
Bit depth : 8 bits
Scan type : Progressive
Bits/(Pixel*Frame) : 0.190
Stream size : 602 MiB (86%)
Writing library : XviD 1.2.0SMP (UTC 2006-01-08)
Audio
ID : 1
Format : MPEG Audio
Format version : Version 1
Format profile : Layer 3
Mode : Joint stereo
Mode extension : MS Stereo
Codec ID : 55
Codec ID/Hint : MP3
Duration : 1h 47mn
Bit rate mode : Variable
Bit rate : 118 Kbps
Nominal bit rate : 128 Kbps
Channel(s) : 2 channels
Sampling rate : 48.0 KHz
Stream size : 90.2 MiB (13%)
Alignment : Aligned on interleaves
Interleave, duration : 24 ms (0.60 video frame)
Interleave, preload duration : 532 ms
Writing library : LAME3.97b
Encoding settings : -m j -V 4 -q 2 -lowpass 17 --abr 128
Language : English
Ime distribucijeAir America (1990) [DVDRip]25.000 FPS
Pošiljalacigor116 @ . preuzeto451x () . Ukloni iz najdražihDodaj među najdraže . Ispravi titloveIspravi titlove

Poslano s BSPlayer v2.61 kreirao bst2

Komentar

Prijava napisati komentar.

Interesantni linkovi
Svi titlovi za ovaj film na ovome jezikuSvi titlovi za ovaj film
Svi titlovi od ovog korisnikaZahtjev za ovim titlom za drugi release
O filmu:O filmu @ http://www.imdb.comPronađite datoteku:Air America watch online for freeAir America downloadDownload warez
Release:Release @ http://www.btarena.orgRelease @ http://nfo.raidrush.wsTrejleri:Trejleri @ http://www.imdb.com
Posteri:Air America movie postersPosteri @ http://www.imdb.comOmoti:Omoti @ https://www.allcdcovers.comOmoti @ http://www.cdcovers.ccOmoti @ http://www.cdcovers.to
Drugi:Vaš link ovdje
Pojedinosti o filmuAKA:Air America (eng), AIR AMERICA 1990 (eng)
Ocjena filma:5.7 / 10 (23104)
[ Anything. Anywhere. Anytime. ] - A young pilot finds himself recruited unwittingly into a covert and corrupt C.I.A. airlift organization operating in Vietnam War-era Laos.
Zemlja:
Ukloni reklamu
download subtitle