Detektiran je "Ad blocking", molimo podržite www.OpenSubtitles.org na neki drugi način
X
Napredna pretraga
Gledaj filmove s titlovima preko Open Subtitles MKV Playera. Besplatan i čist, radi pod Windowsima.
Za pretragu svih odgovarajućih titlova jednostavno kliknite na ime
Ukloni reklamu

A Fish Called Wanda Hrvatski titlovi (1988) 1CD srt

Preuzmi: A Fish Called Wanda movie

film

Kupite na Amazonu

Pojedinosti o titlu

Preuzmi
Hvala

Ocijenite kvalitetu titlova

Ocijeni KVALITETU titlova s 1 bodova (ne valja)  Ocijeni KVALITETU titlova s 3 bodova (loše)  Ocijeni KVALITETU titlova s 5 bodova (srednje)  Ocijeni KVALITETU titlova s 7 bodova (dobro)  Ocijeni KVALITETU titlova s 10 bodova (odlično)

Komentar

Stream this movie on alluc.com

Naziv titlaA Fish Called Wanda (1988) [DVDRip].HR.srt (80513bajtovi) prikaži pregled

Komentar pošiljaocaFormat : AVI
Format/Info : Audio Video Interleave
File size : 700 MiB
Duration : 1h 43mn
Overall bit rate : 945 Kbps
Writing application : Nandub v1.0rc2
Writing library : Nandub build 1852/release
Video
ID : 0
Format : MPEG-4 Visual
Format settings, BVOP : Yes
Format settings, QPel : No
Format settings, GMC : 2 warppoints
Format settings, Matrix : Default (H.263)
Muxing mode : Packed bitstream
Codec ID : DX50
Codec ID/Hint : DivX 5
Duration : 1h 43mn
Bit rate : 804 Kbps
Width : 576 pixels
Height : 304 pixels
Display aspect ratio : 1.895
Frame rate : 25.000 fps
Color space : YUV
Chroma subsampling : 4:2:0
Bit depth : 8 bits
Scan type : Progressive
Bits/(Pixel*Frame) : 0.184
Stream size : 596 MiB (85%)
Writing library : DivX 5.0.2 (UTC 2002-05-16)
Audio
ID : 1
Format : MPEG Audio
Codec ID : 55
Codec ID/Hint : MP3
Duration : 1h 43mn
Bit rate : 128 Kbps
Channel(s) : 2 channels
Sampling rate : 48.0 KHz
Stream size : 94.8 MiB (14%)
Alignment : Split accross interleaves
Interleave, duration : 24 ms (0.60 video frame)
Interleave, preload duration : 484 ms
Ime distribucijeA Fish Called Wanda (1988) [DVDRip].avi25.000 FPS
Pošiljalacigor116 @ . preuzeto243x () . Ukloni iz najdražihDodaj među najdraže . Ispravi titloveIspravi titlove

Poslano s SubDownloader 1.2.9 kreirao capiscuas

Komentar

Prijava napisati komentar.

Preuzmi A Fish Called Wanda s 25 MBit
Patriots.Day.2016.BRRip.XviD.AC3-RARBG.a (1957 MB) Black.Sails.S04E08.HDTV.x264-FLEET.mkv (327 MB)
Hidden.Figures.2016.BluRay.720p.DTS.x264 (6709 MB) Reign.S04E05.HDTV.x264-SVA.mkv (251 MB)
A Fish Called Wanda titlovi Hrvatski
Ime distribucije#CD PoslanoSkinutoOcjena titlaPošiljatelj
HDRip.XviD-TLF2CD38x 0.00titlovic
A Fish Called Wanda_racoo1CD50x 0.00titlovic
A Fish Called Wanda1CD142x 0.00titlovic
Fish Called Wanda1CD30x 0.00titlovic
Fish Called Wanda, A (1988)1CD1584x 0.00miskon (a)
Fish Called Wanda, A (1988)1CD588x 0.00chiquitto (a)
Interesantni linkovi
Svi titlovi za ovaj film na ovome jezikuSvi titlovi za ovaj film
Svi titlovi od ovog korisnikaZahtjev za ovim titlom za drugi release
O filmu:O filmu @ http://www.imdb.comPronađite datoteku:A Fish Called Wanda downloadDownload warez
Release:Release @ http://www.btarena.orgRelease @ http://nfo.raidrush.wsTrejleri:Trejleri @ http://www.imdb.com
Posteri:A Fish Called Wanda movie postersPosteri @ http://www.imdb.comOmoti:Omoti @ http://www.allcdcovers.comOmoti @ http://www.cdcovers.ccOmoti @ http://www.cdcovers.to
Drugi:Vaš link ovdje
Pojedinosti o filmuAKA:Riba zvana Wanda (hrv), A Fish Called Wanda (eng)
Ocjena filma:7.6 / 10 (110059)
[ A New Comedy About Sex, Murder and Seafood. ] - In London, four very different people team up to commit armed robbery, then try to doublecross each other for the loot.
Zemlja:
Ukloni reklamu
download subtitle