Missing Privacy  Support us:
X
Napredna pretraga
Gledaj filmove s titlovima preko Open Subtitles MKV Playera. Besplatan i čist, radi pod Windowsima.
Preporučujemo vam da posjetite linkove u sekciji zanimljivi linkovi
Ukloni reklamu

Snake Eyes Hrvatski titlovi (1998) 1CD srt

Preuzmi: Snake Eyes movie

film

Kupite na Amazonu

Pojedinosti o titlu

Preuzmi
Hvala

Ocijenite kvalitetu titlova

Ocijeni KVALITETU titlova s 1 bodova (ne valja)  Ocijeni KVALITETU titlova s 3 bodova (loše)  Ocijeni KVALITETU titlova s 5 bodova (srednje)  Ocijeni KVALITETU titlova s 7 bodova (dobro)  Ocijeni KVALITETU titlova s 10 bodova (odlično)

Komentar

Zaboravite na web, preuzmite titlove upotrebom Open Subtitles MKV Player

Naziv titlaSnake Eyes (1998) DVDRip.HR.srt (96619bajtovi) prikaži pregled

Komentar pošiljaocaFormat : AVI
Format/Info : Audio Video Interleave
File size : 699 MiB
Duration : 1h 38mn
Overall bit rate : 995 Kbps
Movie name : Snake Eyes - SBC
Subject : Snake Eyes - SBC
Writing application : Nandub v1.0rc2
Writing library : Nandub build 1853/release
Video
ID : 0
Format : MPEG-4 Visual
Codec ID : DIV3
Codec ID/Hint : DivX 3 Low
Duration : 1h 38mn
Bit rate : 870 Kbps
Width : 608 pixels
Height : 256 pixels
Display aspect ratio : 2.35:1
Frame rate : 23.976 fps
Color space : YUV
Chroma subsampling : 4:2:0
Bit depth : 8 bits
Bits/(Pixel*Frame) : 0.233
Stream size : 612 MiB (88%)
Audio
ID : 1
Format : MPEG Audio
Format version : Version 1
Format profile : Layer 3
Mode : Joint stereo
Mode extension : MS Stereo
Codec ID : 55
Codec ID/Hint : MP3
Duration : 1h 38mn
Bit rate mode : Constant
Bit rate : 112 Kbps
Channel(s) : 2 channels
Sampling rate : 44.1 KHz
Stream size : 78.8 MiB (11%)
Alignment : Aligned on interleaves
Interleave, duration : 26 ms (0.63 video frame)
Interleave, preload duration : 496 ms
Ime distribucijeSnake Eyes (1998) DVDRip.avi23.976 FPS
Pošiljalacigor116 @ . preuzeto462x () . Ukloni iz najdražihDodaj među najdraže . Ispravi titloveIspravi titlove

Poslano s BSPlayer v2.61 kreirao bst2

Komentar

Prijava napisati komentar.

Preuzmi Snake Eyes s 25 MBit
scorpion.309.hdtv-lol[ettv].mkv (327 MB) gs88-suicide.squad.avi (1355 MB)
Teen.Wolf.S06E02.720p.HDTV.x264-SVA.mkv (798 MB) Salem.S03E03.HDTV.x264-KILLERS[ettv].mkv (247 MB)
Snake Eyes titlovi Hrvatski
Ime distribucije#CD PoslanoSkinutoOcjena titlaPošiljatelj
Snake Eyes (1998)1CD175x 0.00BetaMAN (a)
Snake Eyes1CD84x 0.00arne (a)
Snake Eyes1CD194x 0.00hedo (a)
Snake Eyes1CD71x 0.00lijepi (a)
Interesantni linkovi
Svi titlovi za ovaj film na ovome jezikuSvi titlovi za ovaj film
Svi titlovi od ovog korisnikaZahtjev za ovim titlom za drugi release
O filmu:O filmu @ http://www.imdb.comPronađite datoteku:Snake Eyes downloadSnake Eyes SevenTorrentsDownload warez
Release:Release @ http://www.btarena.orgRelease @ http://nfo.raidrush.wsTrejleri:Trejleri @ http://www.imdb.com
Posteri:Snake Eyes movie postersPosteri @ http://www.imdb.comOmoti:Omoti @ http://www.allcdcovers.comOmoti @ http://www.cdcovers.ccOmoti @ http://www.cdcovers.to
Drugi:Vaš link ovdje
Pojedinosti o filmuOcjena filma:5.9 / 10 (64473)
[ Now you see it. Now you don't. ] - A shady police detective finds himself in the middle of a murder conspiracy at an important boxing match in an Atlantic City casino.
Zemlja:
Jezik:
Ukloni reklamu
download subtitle