Detektiran je "Ad blocking", molimo podržite www.OpenSubtitles.org na neki drugi način
X
Napredna pretraga
Gledaj filmove s titlovima preko Open Subtitles MKV Playera. Besplatan i čist, radi pod Windowsima.

The Whole Ten Yards Hrvatski titlovi (2004) 1CD srt

film

Kupite na Amazonu

Pojedinosti o titlu

Preuzmi
Hvala

Ocijenite kvalitetu titlova

Ocijeni KVALITETU titlova s 1 bodova (ne valja)  Ocijeni KVALITETU titlova s 3 bodova (loše)  Ocijeni KVALITETU titlova s 5 bodova (srednje)  Ocijeni KVALITETU titlova s 7 bodova (dobro)  Ocijeni KVALITETU titlova s 10 bodova (odlično)

Komentar

Add subtitles to your movies with Freemake Video Converter

Naziv titlaThe.Whole.Ten.Yards.2004.WS.Int.DVDRip.XviD-DoggPound.HR.srt (102491bajtovi) prikaži pregled

Komentar pošiljaocaFormat : AVI
Format/Info : Audio Video Interleave
File size : 697 MiB
Duration : 1h 39mn
Overall bit rate : 984 Kbps
Writing application : VirtualDubMod 1.5.10.2 (build 2540/release)
Writing library : VirtualDubMod build 2540/release
Video
ID : 0
Format : MPEG-4 Visual
Format profile : Advanced [email protected]
Format settings, BVOP : Yes
Format settings, QPel : No
Format settings, GMC : No warppoints
Format settings, Matrix : Default (H.263)
Muxing mode : Packed bitstream
Codec ID : XVID
Codec ID/Hint : XviD
Duration : 1h 39mn
Bit rate : 774 Kbps
Width : 544 pixels
Height : 296 pixels
Display aspect ratio : 16:9
Frame rate : 23.976 fps
Color space : YUV
Chroma subsampling : 4:2:0
Bit depth : 8 bits
Scan type : Progressive
Bits/(Pixel*Frame) : 0.200
Stream size : 548 MiB (79%)
Writing library : XviD 1.1.2 (UTC 2006-11-01)
Audio
ID : 1
Format : MPEG Audio
Format version : Version 1
Format profile : Layer 3
Mode : Joint stereo
Codec ID : 55
Codec ID/Hint : MP3
Duration : 1h 39mn
Bit rate mode : Variable
Bit rate : 198 Kbps
Channel(s) : 2 channels
Sampling rate : 48.0 KHz
Stream size : 140 MiB (20%)
Alignment : Aligned on interleaves
Interleave, duration : 24 ms (0.58 video frame)
Interleave, preload duration : 81 ms
Writing library : LAME3.90.3
Ime distribucijeThe.Whole.Ten.Yards.2004.WS.Int.DVDRip.XviD-DoggPound23.976 FPS
Pošiljalacigor116 @ . preuzeto528x () . Ukloni iz najdražihDodaj među najdraže . Ispravi titloveIspravi titlove

Poslano s BSPlayer v2.56 kreirao bst2

Komentar

Prijava napisati komentar.

The Whole Ten Yards titlovi Hrvatski
Ime distribucije#CD PoslanoSkinutoOcjena titlaPošiljatelj
The Yards (2000)1CD68x 0.00titlovic
The.Whole.Ten.Yards.2004.x264.DTS-WAF1CD347x 0.00
The Whole Ten Yards hr1CD244x 0.00
20041CD384x 5.00joroko (a)
Whole Ten Yards, The (2004)2CD173x 5.70rooky (a)
Whole Ten Yards, The (2004)1CD432x 0.00piroman (a)
The Whole Ten Yards DVDRiP.XViD-DvP1CD1615x 5.00Dafke1 (a)
Whole Ten Yards, The (2004)1CD150x 0.00mladenovicz (a)
Interesantni linkovi
Svi titlovi za ovaj film na ovome jezikuSvi titlovi za ovaj film
Svi titlovi od ovog korisnikaZahtjev za ovim titlom za drugi release
O filmu:O filmu @ http://www.imdb.comPronađite datoteku:The Whole Ten Yards downloadDownload warez
Release:Release @ http://www.btarena.orgRelease @ http://nfo.raidrush.wsSlužbeni sajt:Manga Films [es] | Warner Bros.
Trejleri:Trejleri @ http://www.imdb.comPosteri:The Whole Ten Yards movie postersPosteri @ http://www.imdb.com
Omoti:Omoti @ http://www.allcdcovers.comOmoti @ http://www.cdcovers.ccOmoti @ http://www.cdcovers.to
Titlovi:Titlovi @ https://hitsubtitles.comDrugi:Vaš link ovdje
Pojedinosti o filmuAKA:Povratak ubojice mekog srca (hrv), Katil komşum geri döndü (eng), The Whole Nine Yards 2 (eng)
Ocjena filma:5.5 / 10 (47201)
[ They missed each other. This time, their aim is better. ] - Jimmy the Tulip's (Willis) quiet new life is shaken up by his old pal Oz (Perry), whose wife (Henstridge) has been kidnapped by a Hungarian mob. The Tulip and his wife Jill (Peet) spring into action.
Redatelj:
Zemlja:
Ukloni reklamu
download subtitle