Detektiran je "Ad blocking", molimo podržite www.OpenSubtitles.org na neki drugi način
X
Napredna pretraga
Gledaj filmove s titlovima preko Open Subtitles MKV Playera. Besplatan i čist, radi pod Windowsima.
Većina ikona je aktivna, prijeđite mišem preko njih da biste doznali značenje
Ukloni reklamu

The Story of Us Hrvatski titlovi (1999) 1CD srt

Preuzmi: The Story of Us movie

film

Kupite na Amazonu

Pojedinosti o titlu

Preuzmi
Hvala

Ocijenite kvalitetu titlova

Ocijeni KVALITETU titlova s 1 bodova (ne valja)  Ocijeni KVALITETU titlova s 3 bodova (loše)  Ocijeni KVALITETU titlova s 5 bodova (srednje)  Ocijeni KVALITETU titlova s 7 bodova (dobro)  Ocijeni KVALITETU titlova s 10 bodova (odlično)

Komentar

Stream this movie on alluc.com

Naziv titlaThe.Story.Of.Us.1999.DVDRip.XviD-aAF.HR.srt (89761bajtovi) prikaži pregled

Komentar pošiljaocaFormat : AVI
Format/Info : Audio Video Interleave
Format profile : OpenDML
File size : 698 MiB
Duration : 1h 31mn
Overall bit rate : 1 065 Kbps
Writing application : AVI-Mux GUI 1.17.8.3, Feb 16 201019:42:50
Video
ID : 0
Format : MPEG-4 Visual
Format profile : Advanced [email protected]
Format settings, BVOP : Yes
Format settings, QPel : No
Format settings, GMC : No warppoints
Format settings, Matrix : Default (H.263)
Codec ID : XVID
Codec ID/Hint : XviD
Duration : 1h 31mn
Bit rate : 942 Kbps
Width : 608 pixels
Height : 336 pixels
Display aspect ratio : 16:9
Frame rate : 25.000 fps
Color space : YUV
Chroma subsampling : 4:2:0
Bit depth : 8 bits
Scan type : Progressive
Bits/(Pixel*Frame) : 0.184
Stream size : 617 MiB (88%)
Writing library : XviD 1.2.1 (UTC 2008-12-04)
Audio
ID : 1
Format : MPEG Audio
Format version : Version 1
Format profile : Layer 3
Mode : Joint stereo
Mode extension : MS Stereo
Codec ID : 55
Codec ID/Hint : MP3
Duration : 1h 31mn
Bit rate mode : Variable
Bit rate : 114 Kbps
Minimum bit rate : 32.0 Kbps
Channel(s) : 2 channels
Sampling rate : 48.0 KHz
Stream size : 74.9 MiB (11%)
Alignment : Aligned on interleaves
Interleave, duration : 24 ms (0.60 video frame)
Interleave, preload duration : 130 ms
Title : VTS_01_1 T80 3_2ch 384Kbps DELAY 0ms
Writing library : LAME3.98r
Encoding settings : -m j -V 5 -q 0 -lowpass 16.5 --vbr-new -b 32
Ime distribucijeThe.Story.Of.Us.1999.DVDRip.XviD-aAF25.000 FPS
Pošiljalacigor116 @ . preuzeto145x () . Ukloni iz najdražihDodaj među najdraže . Ispravi titloveIspravi titlove

Poslano s BSPlayer v2.64 kreirao bst2

Komentar

Prijava napisati komentar.

Preuzmi The Story of Us s 25 MBit
Ben.Hur.2016.1080p.BluRay.H264.AAC-RARBG (2436 MB) The.Walking.Dead.S07E06.HDTV.x264-DEFiNE (544 MB)
Shooter.S01E01.WEBRip.XviD-FUM[ettv].avi (347 MB) Supergirl.S02E08.720p.HDTV.X264-DIMENSIO (771 MB)
The Story of Us titlovi Hrvatski
Ime distribucije#CD PoslanoSkinutoOcjena titlaPošiljatelj
The Story of Us1CD52x 0.00
Story of Us, The (1999)1CD439x 0.00LiMuBai (a)
Story of Us, The (1999)1CD246x 0.00dmihic1 (a)
The Story of Us1CD400x 0.00arne (a)
The Story of Us1CD319x 0.00Beda (a)
Interesantni linkovi
Svi titlovi za ovaj film na ovome jezikuSvi titlovi za ovaj film
Svi titlovi od ovog korisnikaZahtjev za ovim titlom za drugi release
O filmu:O filmu @ http://www.imdb.comPronađite datoteku:The Story of Us downloadDownload warez
Release:Release @ http://www.btarena.orgRelease @ http://nfo.raidrush.wsSlužbeni sajt:Universal
Trejleri:Trejleri @ http://www.imdb.comPosteri:The Story of Us movie postersPosteri @ http://www.imdb.com
Omoti:Omoti @ http://www.allcdcovers.comOmoti @ http://www.cdcovers.ccOmoti @ http://www.cdcovers.to
Titlovi:Titlovi @ https://hitsubtitles.comDrugi:Vaš link ovdje
Pojedinosti o filmuOcjena filma:5.9 / 10 (18478)
[ Can a marriage survive 15 years of marriage? ] - Ben and Katie Jordan are a married couple who go through hard times in fifteen years of marriage.
Redatelj:
Zemlja:
Ukloni reklamu
download subtitle