Detektiran je "Ad blocking", molimo podržite www.OpenSubtitles.org na neki drugi način
X
Napredna pretraga
Gledaj filmove s titlovima preko Open Subtitles MKV Playera. Besplatan i čist, radi pod Windowsima.
Većina ikona je aktivna, prijeđite mišem preko njih da biste doznali značenje
Ukloni reklamu

Beavis and Butt-Head Do America Hrvatski titlovi (1996) 1CD srt

Preuzmi: Beavis and Butt-Head Do America movie

film

Kupite na Amazonu

Pojedinosti o titlu

Preuzmi
Hvala

Ocijenite kvalitetu titlova

Ocijeni KVALITETU titlova s 1 bodova (ne valja)  Ocijeni KVALITETU titlova s 3 bodova (loše)  Ocijeni KVALITETU titlova s 5 bodova (srednje)  Ocijeni KVALITETU titlova s 7 bodova (dobro)  Ocijeni KVALITETU titlova s 10 bodova (odlično)

Komentar

Stream this movie on alluc.com

Naziv titlaBeavis.And.Butt-head.1996.iNTERNAL.DVDRip.XviD-xCZ.HR.srt (51083bajtovi) prikaži pregled

Komentar pošiljaocaFormat : AVI
Format/Info : Audio Video Interleave
File size : 701 MiB
Duration : 1h 20mn
Overall bit rate : 1 212 Kbps
Writing application : Nandub v1.0rc2
Writing library : Nandub build 1853/release
Video
ID : 0
Format : MPEG-4 Visual
Format profile : [email protected]
Format settings, BVOP : Yes
Format settings, QPel : No
Format settings, GMC : No warppoints
Format settings, Matrix : Default (H.263)
Codec ID : XVID
Codec ID/Hint : XviD
Duration : 1h 20mn
Bit rate : 1 072 Kbps
Width : 576 pixels
Height : 304 pixels
Display aspect ratio : 1.895
Frame rate : 23.976 fps
Color space : YUV
Chroma subsampling : 4:2:0
Bit depth : 8 bits
Scan type : Progressive
Bits/(Pixel*Frame) : 0.255
Stream size : 620 MiB (88%)
Writing library : XviD 0.0.09 (UTC 2003-03-25)
Audio
ID : 1
Format : MPEG Audio
Format version : Version 1
Format profile : Layer 3
Mode : Joint stereo
Mode extension : MS Stereo
Codec ID : 55
Codec ID/Hint : MP3
Duration : 1h 20mn
Bit rate mode : Variable
Bit rate : 128 Kbps
Channel(s) : 2 channels
Sampling rate : 48.0 KHz
Stream size : 73.5 MiB (10%)
Alignment : Aligned on interleaves
Interleave, duration : 24 ms (0.58 video frame)
Interleave, preload duration : 474 ms
Writing library : LAME3.93a
Encoding settings : -m j -V 4 -q 2 -lowpass 17.5 --abr 128
Ime distribucijeBeavis.And.Butt-head.1996.iNTERNAL.DVDRip.XviD-xCZ23.976 FPS
Pošiljalacigor116 @ . preuzeto841x () . Ukloni iz najdražihDodaj među najdraže . Ispravi titloveIspravi titlove

Poslano s SubDownloader 1.2.9 kreirao capiscuas

Komentar

Prijava napisati komentar.

Preuzmi Beavis and Butt-Head Do America s 25 MBit
Killing Salazar 2016 720p BluRay x264 AA (1229 MB) Within.2016.720p.WEB-DL.x264.AC3.mkv (2239 MB)
Scorpion.S03E13.HDTV.x264-LOL[eztv].mkv (333 MB) The.Hollow.Point.2016.720p.BluRay.x264-R (4476 MB)
Beavis and Butt-Head Do America titlovi Hrvatski
Ime distribucije#CD PoslanoSkinutoOcjena titlaPošiljatelj
Beavis and Butt-Head - 08x03 - Holly Cornholio1CD17x 0.00titlovic
Beavis and Butt-head Do America (1996)1CD482x 0.00piroman (a)
Interesantni linkovi
Svi titlovi za ovaj film na ovome jezikuSvi titlovi za ovaj film
Svi titlovi od ovog korisnikaZahtjev za ovim titlom za drugi release
O filmu:O filmu @ http://www.imdb.comPronađite datoteku:Beavis and Butt-Head Do America downloadDownload warez
Release:Release @ http://www.btarena.orgRelease @ http://nfo.raidrush.wsTrejleri:Trejleri @ http://www.imdb.com
Posteri:Beavis and Butt-Head Do America movie postersPosteri @ http://www.imdb.comOmoti:Omoti @ http://www.allcdcovers.comOmoti @ http://www.cdcovers.ccOmoti @ http://www.cdcovers.to
Drugi:Vaš link ovdje
Pojedinosti o filmuOcjena filma:6.8 / 10 (43587)
[ Coming to a screen bigger than your TV. ] - The dim-witted teen duo of Beavis and Butt-Head travel across America in search of their stolen television set.
Zemlja:
Ukloni reklamu
download subtitle