Missing Privacy  Support us:
X
Napredna pretraga
Gledaj filmove s titlovima preko Open Subtitles MKV Playera. Besplatan i čist, radi pod Windowsima.

The Texas Chainsaw Massacre 2 Hrvatski titlovi (1986) 1CD srt

film

Kupite na Amazonu

Pojedinosti o titlu

Preuzmi
Hvala

Ocijenite kvalitetu titlova

Ocijeni KVALITETU titlova s 1 bodova (ne valja)  Ocijeni KVALITETU titlova s 3 bodova (loše)  Ocijeni KVALITETU titlova s 5 bodova (srednje)  Ocijeni KVALITETU titlova s 7 bodova (dobro)  Ocijeni KVALITETU titlova s 10 bodova (odlično)

Komentar

Stream this movie on alluc.com

Naziv titlaThe Texas Chainsaw Massacre 2 [UNCUT] [1986] [DVDRip] [KooKoo] [1337x].HR.srt (38623bajtovi) prikaži pregled

Komentar pošiljaocaFormat : AVI
Format/Info : Audio Video Interleave
File size : 804 MiB
Duration : 1h 40mn
Overall bit rate : 1 120 Kbps
Movie name : The Texas Chainsaw Massacre 2 [1986] [DVDRip] [KooKoo] [1337x]
Director : Ripped By KooKoo
Writing application : Lavf51.19.0
Original source form/Name : DVD_VOLUME
Video
ID : 0
Format : MPEG-4 Visual
Format profile : [email protected]
Format settings, BVOP : No
Format settings, QPel : No
Format settings, GMC : No warppoints
Format settings, Matrix : Default (H.263)
Codec ID : XVID
Codec ID/Hint : XviD
Duration : 1h 40mn
Bit rate : 979 Kbps
Width : 608 pixels
Height : 334 pixels
Display aspect ratio : 16:9
Frame rate : 23.976 fps
Color space : YUV
Chroma subsampling : 4:2:0
Bit depth : 8 bits
Scan type : Progressive
Bits/(Pixel*Frame) : 0.201
Stream size : 703 MiB (87%)
Writing library : XviD 1.1.2 (UTC 2006-11-01)
Audio
ID : 1
Format : MPEG Audio
Format version : Version 1
Format profile : Layer 3
Mode : Joint stereo
Mode extension : MS Stereo
Codec ID : 55
Codec ID/Hint : MP3
Duration : 1h 40mn
Bit rate mode : Constant
Bit rate : 128 Kbps
Channel(s) : 2 channels
Sampling rate : 48.0 KHz
Stream size : 91.9 MiB (11%)
Alignment : Aligned on interleaves
Interleave, duration : 24 ms (0.58 video frame)
Ime distribucijeThe Texas Chainsaw Massacre 2 [UNCUT] [1986] [DVDRip] [KooKoo] [1337x]23.976 FPS
Pošiljalacigor116 @ . preuzeto226x () . Ukloni iz najdražihDodaj među najdraže . Ispravi titloveIspravi titlove

Poslano s SubDownloader 1.2.9 kreirao capiscuas

Komentar

Prijava napisati komentar.

The Texas Chainsaw Massacre 2 titlovi Hrvatski
Ime distribucije#CD PoslanoSkinutoOcjena titlaPošiljatelj
Texas Chainsaw Massacre 4 (1994)1CD790x 0.00titlovic
Interesantni linkovi
Svi titlovi za ovaj film na ovome jezikuSvi titlovi za ovaj film
Svi titlovi od ovog korisnikaZahtjev za ovim titlom za drugi release
O filmu:O filmu @ http://www.imdb.comPronađite datoteku:The Texas Chainsaw Massacre 2 downloadDownload warez
Release:Release @ http://www.btarena.orgRelease @ http://nfo.raidrush.wsSlužbeni sajt:MGM
Trejleri:Trejleri @ http://www.imdb.comPosteri:The Texas Chainsaw Massacre 2 movie postersPosteri @ http://www.imdb.com
Omoti:Omoti @ http://www.allcdcovers.comOmoti @ http://www.cdcovers.ccOmoti @ http://www.cdcovers.to
Titlovi:Titlovi @ http://subtitles.movieDrugi:Vaš link ovdje
Pojedinosti o filmuAKA:The Texas Chainsaw Massacre Part 2 (eng)
Ocjena filma:5.6 / 10 (20650)
[ After a decade of silence... The buzzz is back! ] - A radio host is victimized by the cannibal family as a former Texas Marshall hunts them.
Redatelj:
Zemlja:
Jezik:
download subtitle