Missing Privacy  Support us:
X
Napredna pretraga
Ukloni reklamu

The Karate Kid Part II Hrvatski titlovi (1986) 1CD srt

film

Kupite na Amazonu

Pojedinosti o titlu

Preuzmi
Hvala

Ocijenite kvalitetu titlova

Ocijeni KVALITETU titlova s 1 bodova (ne valja)  Ocijeni KVALITETU titlova s 3 bodova (loše)  Ocijeni KVALITETU titlova s 5 bodova (srednje)  Ocijeni KVALITETU titlova s 7 bodova (dobro)  Ocijeni KVALITETU titlova s 10 bodova (odlično)

Komentar

Naziv titlaThe.Karate.Kid.2.DVDRip.XViD-Rets.HR.srt (66415bajtovi) prikaži pregled

Komentar pošiljaocaFormat : AVI
Format/Info : Audio Video Interleave
File size : 700 MiB
Duration : 1h 48mn
Overall bit rate : 901 Kbps
Writing application : VirtualDubMod 1.5.4.1 (build 2178/release)
Writing library : VirtualDubMod build 2178/release
Video
ID : 0
Format : MPEG-4 Visual
Format profile : Advanced Simple@L5
Format settings, BVOP : Yes
Format settings, QPel : No
Format settings, GMC : No warppoints
Format settings, Matrix : Custom
Codec ID : XVID
Codec ID/Hint : XviD
Duration : 1h 48mn
Bit rate : 774 Kbps
Width : 576 pixels
Height : 320 pixels
Display aspect ratio : 16:9
Frame rate : 25.000 fps
Color space : YUV
Chroma subsampling : 4:2:0
Bit depth : 8 bits
Scan type : Progressive
Bits/(Pixel*Frame) : 0.168
Stream size : 601 MiB (86%)
Writing library : XviD 1.2.0SMP (UTC 2006-01-08)
Audio
ID : 1
Format : MPEG Audio
Format version : Version 1
Format profile : Layer 3
Mode : Joint stereo
Mode extension : MS Stereo
Codec ID : 55
Codec ID/Hint : MP3
Duration : 1h 48mn
Bit rate mode : Variable
Bit rate : 115 Kbps
Nominal bit rate : 128 Kbps
Channel(s) : 2 channels
Sampling rate : 48.0 KHz
Stream size : 89.1 MiB (13%)
Alignment : Aligned on interleaves
Interleave, duration : 24 ms (0.60 video frame)
Interleave, preload duration : 160 ms
Writing library : LAME3.97b
Encoding settings : -m j -V 4 -q 2 -lowpass 17 --abr 128
Language : English
Ime distribucijeThe.Karate.Kid.2.DVDRip.XViD-Rets25.000 FPS
Pošiljalacigor116 @ . preuzeto878x () . Ukloni iz najdražihDodaj među najdraže . Ispravi titloveIspravi titlove

Poslano s BSPlayer v2.57 kreirao bst2

Komentar

Prijava napisati komentar.

The Karate Kid Part II titlovi Hrvatski
Ime distribucije#CD PoslanoSkinutoOcjena titlaPošiljatelj
The.Karate.Kid.2.1986.AC3.DVDRip.CD1.DivX-mBates.ShareViru... 2CD1096x 0.00peroperc (a)
Karate Kid, Part II, The (1986)1CD1805x 0.00piroman (a)
Interesantni linkovi
Svi titlovi za ovaj film na ovome jezikuSvi titlovi za ovaj film
Svi titlovi od ovog korisnikaZahtjev za ovim titlom za drugi release
O filmu:O filmu @ http://www.imdb.comPronađite datoteku:Pronađite datoteku @ http://housemovie.toThe Karate Kid Part II downloadDownload warez
Release:Release @ http://www.btarena.orgRelease @ http://nfo.raidrush.wsTrejleri:Trejleri @ http://www.imdb.com
Posteri:The Karate Kid Part II movie postersPosteri @ http://www.imdb.comOmoti:Omoti @ https://www.allcdcovers.comOmoti @ http://www.cdcovers.ccOmoti @ http://www.cdcovers.to
Drugi:Vaš link ovdje
Pojedinosti o filmuAKA:Karate Kid 2 (hrv), Karate Kid II (eng), Kung Fu Kid (eng), The Karate Kid Part 2 (eng), The Karate Kid Part II (eng), Малюк-каратист 2 (eng)
Ocjena filma:5.9 / 10 (59884)
[ The story continues... ] - Daniel accompanies his mentor, Mr. Miyagi, to Miyagi's childhood home in Okinawa. Miyagi visits his dying father and confronts his old rival, while Daniel falls in love and inadvertently makes a new rival of his own.
Zemlja:
Jezik:
Ukloni reklamu
download subtitle