Missing Privacy  Support us:
X
Mukautettu haku
Katso elokuvia tekstityksillä käyttäen Open Subtitles MKV Soitinta. Ilmainen ja virus-vapaa, toimii Windowsilla.

Tekstitykset teräväpiirto elokuvalle

Salt Suomi tekstitykset (2010) 1CD sub

film

Osta Amazon:ista

Tekstityksen tiedot

Lataa
Kiitä3 kertaa kiitetty

Arvostele tekstitysten laatu

Arvostele tekstitys 1 pisteellä (huono)  Arvostele tekstitys 3 pisteellä (heikko)  Arvostele tekstitys 5 pisteellä (okei)  Arvostele tekstitys 7 pisteellä (hyvä)  Arvostele tekstitys 10 pisteellä (erinomainen)

Kommentoi

Tekstityksen tiedostonimiSalt Directors Cut 2010 BRRip AC3 Xvid LKRG.sub (48319tavua) näytä esikatselu

							Hash - BSPlayer v2.56exvid-saltext.avi | 734486528 | Elokuvien tiedostonimet

							Hash - BSPlayer v2.56Salt[2010]Unrated.Director's.Cut.Edition]DvDrip-aXXo.avi | 735508480 | Elokuvien tiedostonimet

							Hash - BSPlayer v2.56Salt.Directors.Cut.2010.480p.BRRip.XviD.AC3-FLAWL3SS.avi | 1760573338 | Elokuvien tiedostonimet

							Hash - BSPlayer v2.56Salt_Directors Cut (2010).avi | 734939136 | Elokuvien tiedostonimet

							Hash - BSPlayer v2.54saltLKRG.avi | 1004173010 | Elokuvien tiedostonimet

							Hash - BSPlayer v2.56Salt.Director's.Cut.2010.720p.BluRay.DTS.x264-xXx.mkv | 7022396029 | Elokuvien tiedostonimet

							Hash - BSPlayer v2.56Salt [2010] dvd rip nlx.avi | 739891200 | Elokuvien tiedostonimet

							Hash - BSPlayer v2.63Salt.DIRECTORS.CUT.2010.1080p.BrRip.x264.BOKUTOX.YIFY.mp4 | 1504705245 | Elokuvien tiedostonimet

							Hash - XMLRPC++ 0.7Salt Director's Cut 2010 720p BRRip XviD AC3-FLAWL3SS.avi | 3004700672 | Elokuvien tiedostonimet

							Hash - BSPlayer v2.5602. Salt Unrated Directors Cut.mp4 | 723002196 | Elokuvien tiedostonimet

							Hash - BSPlayer v2.64[ www.UsaBit.com ] - Salt (2010) Directors Cut BluRay 720p 7 | 730147010 | Elokuvien tiedostonimet

							Hash - BSPlayer v2.56Salt.2010.R5.LiNE.Xvid {1337x}-Noir.avi | 735872924 | Elokuvien tiedostonimet

							Hash - BSPlayer v2.56santi-salt.brrip.xvid.avi | 1546356736 | Elokuvien tiedostonimet

							Hash - BSPlayer v2.56exvid-saltdc.avi | 734640128 | Elokuvien tiedostonimet

							Hash - BSPlayer v2.57Salt Directors Cut 2010 BRRip AC3 Xvid LKRG.mp4 | 2313784175 | Elokuvien tiedostonimet

							Hash - BSPlayer v2.58Salt.UNRATED.2010.BRRip.XviD.AC3-SANTi.avi | 1546356737 | Elokuvien tiedostonimet

							Hash - BSPlayer v2.57Salt DVDRip Xvid AC3 - FooKaS.avi | 1472559104 | Elokuvien tiedostonimet

							Hash - BSPlayer v2.57avs720-salt.mkv | 4688307261 | Elokuvien tiedostonimet

							Hash - BSPlayer v2.65Salt.2010.DC.1080p.BluRay.H264.AAC-RARBG.mp4 | 2132027593 | Elokuvien tiedostonimet

Lataa tektitykset muodossa drtic (dtc)Lataa tektitykset muodossa drtic (dtc)
Lisääjän kommenttiFormat;Avi
File Size:958mb
Video: ID : 0
Format : MPEG-4 Visual
Format profile : Advanced [email protected]
Format settings, BVOP : Yes
Format settings, QPel : No
Format settings, GMC : No warppoints
Format settings, Matrix : Default (H.263)
Codec ID : XVID
Codec ID/Hint : XviD
Duration : 1h 44mn
Bit rate : 892 Kbps
Width : 720 pixels
Height : 304 pixels
Display aspect ratio : 2.35:1
Frame rate : 23.976 fps
Color space : YUV
Chroma subsampling : 4:2:0
Bit depth : 8 bits
Scan type : Progressive
Bits/(Pixel*Frame) : 0.170
Stream size : 664 MiB (69%)
Writing library : XviD 1.2.1 (UTC 2008-12-04)
Audio: ID : 1
Format : AC-3
Format/Info : Audio Coding 3
Mode extension : CM (complete main)
Codec ID : 2000
Duration : 1h 44mn
Bit rate mode : Constant
Bit rate : 384 Kbps
Channel(s) : 6 channels
Channel positions : Front: L C R, Side: L R, LFE
Sampling rate : 48.0 KHz
Bit depth : 16 bits
Stream size : 286 MiB (30%)
Alignment : Aligned on interleaves
Interleave, duration : 32 ms (0.77 video frame)
Duration:1:44
Release Date:2010
Language:English
Ajastus ja Muokkaus:|JULLE JULMURI 16.11.2010
JulkaisunimiSalt Directors Cut 2010 BRRip AC3 Xvid LKRG23.976 FPS
LisääjäAnonymous @ . ladattu5697x () . Poista suosikeistaLisää suosikkeihin . Ilmoita virheellisestä tekstityksestäIlmoita virheellisestä tekstityksestä

Lisätty BSPlayer v2.56 kehitetty bst2

Kommentoi

Kirjaudu sisään kommentoidaksesi.

Salt tekstitykset Suomi
Julkaisunimi#CD LisättyLadattuTekstityksen arvosteluLisääjä
Salt.2010.2in1.720p.BluRay.x264.DTS-WiKi1CD3393x 0.00jone2
Kiinnostavia linkkejä
Kaikki tekstitykset tälle elokuvalle tällä kielelläKaikki tekstitykset tälle elokuvalle
Kaikki tekstitykset tältä käyttäjältäToivo tätä tekstitystä erilaiselle julkaisulle
Elokuvasta:Elokuvasta @ http://www.imdb.comEtsi tiedosto:Salt downloadSalt SevenTorrentsDownload warez
Julkaisu:Julkaisu @ http://www.btarena.orgJulkaisu @ http://nfo.raidrush.wsVirallinen sivu:Official site [jp] | Sony Pictures [ca] | Sony Pictures [fr] | Sony Pictures [us]
Trailereita:Trailereita @ http://www.imdb.comJulisteita:Salt movie postersJulisteita @ http://www.imdb.com
Kannet:Kannet @ http://www.allcdcovers.comKannet @ http://www.cdcovers.ccKannet @ http://www.cdcovers.to
Tekstitykset:Tekstitykset @ http://subtitles.movieMuuta:Oma linkkisi tähän
Elokuvan tiedotMuu nimi:Edwin A. Salt (eng), Salt (eng), Salt Ugynok (eng), subtitle by Amir (eng), Солт (eng)
Elokuvan arvostelu:6.4 / 10 (257126)
[ Kuka on Salt? ] - Angelina Jolie nähdään pääosassa Columbia Picturesin nykyaikaisessa vakoojatrillerissä nimeltä Salt.Liittyessään CIA:n riveihin Evelyn Salt (Jolie) vannoi palvelevansa maataan uskollisesti. Hänen lojaaliutensa joutuu kuitenkin koetukselle, kun muuan loikkari väittää hänen olevan uinuva venäläinen kaksoisagentti. Niin Salt joutuu pakenemaan ja käyttämään kaikkia oppimiaan taitoja ja CIA-vuosiensa kokemusta välttääkseen kiinnijäämisen, suojellakseen aviomiestään ja pysyäkseen koko ajan askeleen edellä agenttikollegoitaan.
Ohjannut:
Käsikirjoitus:
Maa:
download subtitle