Missing Privacy  Support us:
X
Mukautettu haku
Katso elokuvia tekstityksillä käyttäen Open Subtitles MKV Soitinta. Ilmainen ja virus-vapaa, toimii Windowsilla.
Suosittelemme vierailemaan sivuilla, jotka ovat mielenkiintoisia linkkejä -osiossa
Poista mainos

D.A.R.Y.L. Suomi tekstitykset (1985) 1CD sub

Lataa: D.A.R.Y.L. movie

film

Osta Amazon:ista

Tekstityksen tiedot

Lataa
Kiitä

Arvostele tekstitysten laatu

Arvostele tekstitys 1 pisteellä (huono)  Arvostele tekstitys 3 pisteellä (heikko)  Arvostele tekstitys 5 pisteellä (okei)  Arvostele tekstitys 7 pisteellä (hyvä)  Arvostele tekstitys 10 pisteellä (erinomainen)

Kommentoi

Tekstityksen tiedostonimiD.A.R.Y.L.1985.DVDRip.XviD.MP3-ENG.sub (40027tavua) näytä esikatselu

Lataa tektitykset muodossa drtic (dtc)Lataa tektitykset muodossa drtic (dtc)
Lisääjän kommenttiComplete name : D.A.R.Y.L. (1985) - DVDRip - MP3 - ENG.avi
Format : AVI
File size : 707 MiB
Duration : 1h 36mn
Overal bit rate : 1029 Kbps
IAS1 : English
Video
Format : MPEG-4 Visual
Codec ID : XviD
Duration : 1h 36mn
Bit rate : 894 Kbps
Width : 608 pixels
Height : 256 pixels
Display aspect ratio : 2.35
Frame rate : 25.000 fps
Resolution : 8 bits
Colorimetry : 4:2:0
Scan type : Progressive
Bits/(Pixel*Frame) : 0.230
Stream size : 614 MiB (87%)
Audio
Format : MPEG Audio
Format version : Version 1
Format profile : Layer 3
Codec ID : 55
Codec ID/Hint : MP3
Duration : 1h 36mn
Bit rate mode : Constant
Bit rate : 128 Kbps
Channel(s) : 2 channels
Sampling rate : 48.0 KHz
Resolution : 16 bits
Stream size : 87.9 MiB (12%)
Writing library : LAME3.97
JulkaisunimiD.A.R.Y.L. (1985) - DVDRip - MP3 - ENG25.000 FPS
LisääjäAnonymous @ . ladattu104x () . Poista suosikeistaLisää suosikkeihin . Ilmoita virheellisestä tekstityksestäIlmoita virheellisestä tekstityksestä

Kommentoi

Kirjaudu sisään kommentoidaksesi.

Lataa D.A.R.Y.L. 25 Mt
Resident.Evil.The.Final.Chapter.2016.108 (3013 MB) The.Walking.Dead.S07E13.HDTV.x264-xTV.mk (526 MB)
Assassin\'s.Creed.2016.720p.BluRay.x264- (861 MB) The.Simpsons.S28E17.HDTV.x264-SVA.mkv (170 MB)
Kiinnostavia linkkejä
Kaikki tekstitykset tälle elokuvalle tällä kielelläKaikki tekstitykset tälle elokuvalle
Kaikki tekstitykset tältä käyttäjältäToivo tätä tekstitystä erilaiselle julkaisulle
Elokuvasta:Elokuvasta @ http://www.imdb.comEtsi tiedosto:D.A.R.Y.L. downloadDownload warez
Julkaisu:Julkaisu @ http://www.btarena.orgJulkaisu @ http://nfo.raidrush.wsTrailereita:Trailereita @ http://www.imdb.com
Julisteita:D.A.R.Y.L. movie postersJulisteita @ http://www.imdb.comKannet:Kannet @ http://www.allcdcovers.comKannet @ http://www.cdcovers.ccKannet @ http://www.cdcovers.to
Muuta:Oma linkkisi tähän
Elokuvan tiedotMuu nimi:D.A.R.Y.L. (eng)
Elokuvan arvostelu:6.2 / 10 (9741)
[ He can fly a jet, race a car and outsmart a computer. The government created him and now they want h ] - A seemingly normal young boy turns out to be a top secret military-created robot with superhuman abilities.
Ohjannut:
Maa:
Kieli:
Poista mainos
download subtitle