Ad blocking detected, consider supporting www.OpenSubtitles.org in an other way
X
جست‌وجوی پیشرفته
Watch movies with subtitles using Open Subtitles MKV Player. It is free and clean, works under Windows.
بیشتر آی‌کان‌ها فعال هستند، با نگه‌داشتن ماوس بر روی آن‌ها، عمل‌کردشان را خواهید دید
Remove advertisement

Ed Wood کروات زیرنویس‌ها (1994) 1CD srt

دریافت: Ed Wood movie

film

خرید از آمازون

جزییات زیرنویس

دریافت
Thanks

امتیازدهی به زیرنویس‌ها | نشان دادن آنونس

به زیرنویس‌ها امتیاز بدهید، براساس +1امتیازبه زیرنویس‌ها امتیاز بدهید، براساس +3امتیازبه زیرنویس‌ها امتیاز بدهید، براساس +5امتیازبه زیرنویس‌ها امتیاز بدهید، براساس +7امتیازبه زیرنویس‌ها امتیاز بدهید، براساس +10امتیاز


نام فایل زیرنویسEd Wood.HR.srt (132743بایت) پیش‌نمایشتوضیحات ارسال‌کنندهFormat : AVI
Format/Info : Audio Video Interleave
Format profile : OpenDML
Format settings : rec
File size : 701 MiB
Duration : 2h 1mn
Overall bit rate : 808 Kbps
Writing application : AVI-Mux GUI 1.17.7, Aug 8 2006 20:59:17
Video
ID : 0
Format : MPEG-4 Visual
Format profile : Advanced Simple@L5
Format settings, BVOP : 1
Format settings, QPel : No
Format settings, GMC : No warppoints
Format settings, Matrix : Custom
Codec ID : XVID
Codec ID/Hint : XviD
Duration : 2h 1mn
Bit rate : 671 Kbps
Width : 592 pixels
Height : 336 pixels
Display aspect ratio : 16:9
Frame rate : 25.000 fps
Color space : YUV
Chroma subsampling : 4:2:0
Bit depth : 8 bits
Scan type : Progressive
Compression mode : Lossy
Bits/(Pixel*Frame) : 0.135
Stream size : 583 MiB (83%)
Writing library : XviD 1.2.0.dev47 (UTC 2006-11-01)
Audio
ID : 1
Format : MPEG Audio
Format version : Version 1
Format profile : Layer 3
Mode : Joint stereo
Mode extension : MS Stereo
Codec ID : 55
Codec ID/Hint : MP3
Duration : 2h 1mn
Bit rate mode : Constant
Bit rate : 128 Kbps
Channel(s) : 2 channels
Sampling rate : 48.0 KHz
Compression mode : Lossy
Stream size : 111 MiB (16%)
Alignment : Aligned on interleaves
Interleave, duration : 24 ms (0.60 video frame)
Interleave, preload duration : 192 ms
Writing library : LAME3.97
نام فایل منتشرشدهEd Wood.avi [NoScene]25.000 FPS
ارسال‌کنندهigor116 @ . دریافت شده85x () . Remove from favouritesاضافه کردن به لیست علاقه مندی ها . گزارش خطای زیرنویس‌هاگزارش خطای زیرنویس‌ها

Uploaded from BSPlayer v2.57 developed by bst2

توضیح

ورود برای ارسال توضیح.

خرید از آمازون
Ed Wood زیرنویس‌ها کروات
نام فایل منتشرشده#CD ارسال شدهدریافت شدهامتیاز زیرنویسفرستنده
Ed Wood (1994)1CD672x 0.00Nerv (a)
لینک‌های جالب
تمامی زیرنویس‌ها‌ی این فیلم در این زبانتمامی زیرنویس‌های این فیلم
تمامی زیرنویس‌های این کاربردرخواست این زیرنویس برای نسخه‌ی منتشرشده‌ی دیگری از فیلم
درباره‌ی فیلم:درباره‌ی فیلم @ http://www.imdb.comیافتن فایل:Ed Wood SevenTorrentsیافتن فایل @ http://www.realtorrentz.comDownload warezیافتن فایل @ http://www.btscene.orgیافتن فایل @ http://raidrush.ws
نام فایل منتشرشده:نام فایل منتشرشده @ http://www.btarena.orgنام فایل منتشرشده @ http://nfo.raidrush.wsآنونس‌ها:آنونس‌ها @ http://www.imdb.com
پوسترها:poster at movieposterdb.comپوسترها @ http://www.imdb.comکاورها:کاورها @ http://www.allcdcovers.comکاورها @ http://www.cdcovers.ccکاورها @ http://www.cdcovers.to
WEB:WEB @ http://boardreader.comزیرنویس‌ها:Ed Wood subtitles
دیگران:جای لینک شما!
کاورها
جزییات فیلمنام دیگر:Ed Wood (hrv)
امتیاز فیلم:7.9 / 10 (134445)
[ When it came to making bad movies, Ed Wood was the best. ] - An ambitious but troubled movie director tries his best to fulfill his dream, despite his lack of support.
کارگردان:
کشور:
زبان:
Remove advertisement
download subtitle
TOPlist