Bloqueo de anuncios detectado, considere apoyarnos www.OpenSubtitles.org de otra manera
X
Búsqueda avanzada
Ver películas con subtítulos usando Open Subtitles MKV Player. Es sencillo y gratis, compatible con Windows.
Para buscar todos los subtítulos correspondientes haz click en el nombre
Eliminar publicidad

Subtítulos de alta definición

"Spartacus: Gods of the Arena" Paterfamilias S01E03 Espańól subtítulos (2011) 1CD srt

Temorada: 1 - Episodio: 3

- Todos los subtítulos para esta serie de TV.

Descarga: Spartacus: Gods of the Arena movie

film

Comprar en Amazon

Detalles del subtítulos

Descarga
Gracias

Tipo de calidad de subtítulos

Tipo de CALIDAD de subtítulos con 1 de puntaje (mala) Tipo de CALIDAD de subtítulos con 3 de puntaje (baja) Tipo de CALIDAD de subtítulos con 5 de puntaje (regular) Tipo de CALIDAD de subtítulos con 7 de puntaje (buena) Tipo de CALIDAD de subtítulos con 10 de puntaje (excelente)

Comentario

Add subtitles to your movies with Freemake Video Converter

Nombre de archivo del subtítuloSpartacus: Gods of the Arena" PaterfamiPt.III.HDTV.XviD-ASAP.srt (54550bytes) vista previa

Comentario del que lo subióGeneral
imdb: : www.imdb.com/title/tt1775928/combined
Complete name : /home/sduarte/Downloads/Spartacus.Gods.of.the.Arena/Spartacus.Gods.of.the.Arena.Pt.III.HDTV.XviD-ASAP.avi
Format : AVI
Format/Info : Audio Video Interleave
File size : 551 MiB
Duration : 55mn 53s
Overall bit rate mode : Variable
Overall bit rate : 1 378 Kbps
Writing application : Some super fast AVI muxer
Video
ID : 0
Format : MPEG-4 Visual
Format profile : Advanced [email protected]
Format settings, BVOP : 2
Format settings, QPel : No
Format settings, GMC : No warppoints
Format settings, Matrix : Default (H.263)
Codec ID : XVID
Codec ID/Hint : XviD
Duration : 55mn 53s
Bit rate : 1 227 Kbps
Width : 624 pixels
Height : 352 pixels
Display aspect ratio : 16:9
Frame rate : 23.976 fps
Color space : YUV
Chroma subsampling : 4:2:0
Bit depth : 8 bits
Scan type : Progressive
Compression mode : Lossy
Bits/(Pixel*Frame) : 0.233
Stream size : 490 MiB (89%)
Writing library : XviD 70
Audio
ID : 1
Format : MPEG Audio
Format version : Version 1
Format profile : Layer 3
Codec ID : 55
Codec ID/Hint : MP3
Duration : 38mn 30s
Source duration : 56mn 9s
Bit rate mode : Variable
Bit rate : 135 Kbps
Channel(s) : 2 channels
Sampling rate : 48.0 KHz
Compression mode : Lossy
Stream size : 54.3 MiB (10%)
Alignment : Aligned on interleaves
Interleave, duration : 24 ms (0.58 video frame)
Interleave, preload duration : 11 ms
Writing library : LAME3.97
Nombre del estrenoSpartacus: Gods of the Arena" Paterfamilias S01E03 (2011)23.976 FPS
Quién lo subió:sadh @ . descargado1258x () . Borrar de los favoritosAñadir a los favoritos . Informar de película incorrectaInformar de película incorrecta

Subido desde SubDownloader 2.0.14 desarrollado por capiscuas

Comentario

acceder añadir comentarios.

Bajar "Spartacus: Gods of the Arena" Paterfamilias desde 25 MBit
supergirl.208.hdtv-lol[ettv].mkv (281 MB) Vikings.S04E11.HDTV.x264-KILLERS[ettv].m (314 MB)
Suicide.Squad.2016.EXTENDED.SLOSubs.BRRi (2876 MB) The.Flash.2014.S03E08.720p.WEB-DL.DD5.1. (1340 MB)
Enlaces interesantes
Todos los subtítulos de esta película en este idiomaTodos los subtítulos de esta película
Todos los subtítulos de este usuarioSolicitar este subtítulo para un estreno diferente
Sobre la película:Sobre la película @ http://www.imdb.comBuscar archivo:Spartacus: Gods of the Arena downloadDownload warez
Estreno:Estreno @ http://www.btarena.orgEstreno @ http://nfo.raidrush.wsTrailers:Trailers @ http://www.imdb.com
Posters:Posters @ http://www.imdb.comCubiertas:Cubiertas @ http://www.allcdcovers.comCubiertas @ http://www.cdcovers.ccCubiertas @ http://www.cdcovers.to
Otros:Tu enlace aquí
Detalles del FilmPuntuación del Film:8.4 / 10 (1040)
[ ] - Batiatus is pleased with himself having arranged for Gannicus to appear in the primus of Quintillius Varis' games. He is not however prepared for the return of his father Titus who arrives ...
Dirigido por:
Idioma:
Eliminar publicidad
download subtitle