Missing Privacy  Support us:
X
Búsqueda avanzada
Ver películas con subtítulos usando Open Subtitles MKV Player. Es sencillo y gratis, compatible con Windows.
Para buscar todos los subtítulos correspondientes haz click en el nombre
Eliminar publicidad

Subtítulos de alta definición

Spartacus: Dioses de la Arena Espańól subtítulos (2011) 1CD srt

La película del subtitulo podría estar equivocado, por favor ayúdenos con la corrección (1)

Descarga: Spartacus: Gods of the Arena movie

film

Comprar en Amazon

Detalles del subtítulos

Descarga
Gracias

Tipo de calidad de subtítulos

Tipo de CALIDAD de subtítulos con 1 de puntaje (mala) Tipo de CALIDAD de subtítulos con 3 de puntaje (baja) Tipo de CALIDAD de subtítulos con 5 de puntaje (regular) Tipo de CALIDAD de subtítulos con 7 de puntaje (buena) Tipo de CALIDAD de subtítulos con 10 de puntaje (excelente)

Comentario

Stream this movie on alluc.com

Nombre de archivo del subtítuloSpartacus.Gods.of.the.Arena.Pt.I.HDTV.XviD-SYS.srt (57364bytes) vista previa

Comentario del que lo subióGeneral
imdb : www.imdb.com/title/tt1775926/combined
Complete name : Spartacus.Gods.of.the.Arena.Pt.I.HDTV.XviD-SYS.avi
Format : AVI
Format/Info : Audio Video Interleave
File size : 548 MiB
Duration : 51mn 17s
Overall bit rate mode : Variable
Overall bit rate : 1 493 Kbps
Writing application : Nandub v1.0rc2
Writing library : Nandub build 1853/release
Video
ID : 0
Format : MPEG-4 Visual
Format profile : Advanced [email protected]
Format settings, BVOP : 2
Format settings, QPel : No
Format settings, GMC : No warppoints
Format settings, Matrix : Default (H.263)
Codec ID : XVID
Codec ID/Hint : XviD
Duration : 51mn 17s
Bit rate : 1 356 Kbps
Width : 624 pixels
Height : 352 pixels
Display aspect ratio : 16:9
Frame rate : 23.976 fps
Color space : YUV
Chroma subsampling : 4:2:0
Bit depth : 8 bits
Scan type : Progressive
Compression mode : Lossy
Bits/(Pixel*Frame) : 0.258
Stream size : 498 MiB (91%)
Writing library : XviD 1.3.0.dev55
Audio
ID : 1
Format : MPEG Audio
Format version : Version 1
Format profile : Layer 3
Mode : Joint stereo
Mode extension : MS Stereo
Codec ID : 55
Codec ID/Hint : MP3
Duration : 51mn 17s
Bit rate mode : Variable
Bit rate : 128 Kbps
Channel(s) : 2 channels
Sampling rate : 48.0 KHz
Compression mode : Lossy
Stream size : 45.6 MiB (8%)
Alignment : Aligned on interleaves
Interleave, duration : 24 ms (0.58 video frame)
Interleave, preload duration : 141 ms
Writing library : LAME3.92
Encoding settings : -m j -V 4 -q 2 -lowpass 17.5 --abr 128
Nombre del estrenoSpartacus.Gods.of.the.Arena Past Transgressions23.976 FPS
Quién lo subió:sadh @ . descargado1020x () . Borrar de los favoritosAñadir a los favoritos . Informar de película incorrectaInformar de película incorrecta

Subido desde SubDownloader 2.0.14 desarrollado por capiscuas

Comentario

acceder añadir comentarios.

Bajar Spartacus: Gods of the Arena desde 25 MBit
The.Simpsons.S28E17.HDTV.x264-SVA[eztv]. (170 MB) Marvels.Iron.Fist.S01E03.WEB.X264-DEFLAT (446 MB)
Office.Christmas.Party.2016.1080p.BluRay (9264 MB) The.Great.Wall.2016.KORSUB.HDRip.x264-xF (902 MB)
Enlaces interesantes
Todos los subtítulos de esta película en este idiomaTodos los subtítulos de esta película
Todos los subtítulos de este usuarioSolicitar este subtítulo para un estreno diferente
Sobre la película:Sobre la película @ http://www.imdb.comBuscar archivo:Spartacus: Gods of the Arena downloadDownload warez
Estreno:Estreno @ http://www.btarena.orgEstreno @ http://nfo.raidrush.wsSitio Oficial:Official site
Trailers:Trailers @ http://www.imdb.comPosters:Spartacus: Gods of the Arena movie postersPosters @ http://www.imdb.com
Cubiertas:Cubiertas @ http://www.allcdcovers.comCubiertas @ http://www.cdcovers.ccCubiertas @ http://www.cdcovers.to
Subtítulos:Subtítulos @ https://hitsubtitles.comSubtítulos Spartacus: Gods of the ArenaOtros:Tu enlace aquí
Detalles del FilmAKA:Spartacus: Dioses de la arena (spa), Spartacus: Gods of the Arena (eng), Spartacus: Gods of the Arena (TV mini-series 2011) (eng)
Puntuación del Film:8.6 / 10 (97206)
[ ] - Before Spartacus struck down his first opponent in the arena, there were many gladiators who passed through the gates onto the sand.'Spartacus: Gods of the Arena' tells the story of the ...
País:
Eliminar publicidad
download subtitle