Missing Privacy  Support us:
X
Búsqueda avanzada
Ver películas con subtítulos usando Open Subtitles MKV Player. Es sencillo y gratis, compatible con Windows.

El señor de los anillos: La comunidad del anillo Espańól subtítulos (2001) 1CD srt

film

Comprar en Amazon

Detalles del subtítulos

Descarga
Gracias

Tipo de calidad de subtítulos

Tipo de CALIDAD de subtítulos con 1 de puntaje (mala) Tipo de CALIDAD de subtítulos con 3 de puntaje (baja) Tipo de CALIDAD de subtítulos con 5 de puntaje (regular) Tipo de CALIDAD de subtítulos con 7 de puntaje (buena) Tipo de CALIDAD de subtítulos con 10 de puntaje (excelente)

Comentario

Stream this movie on alluc.com

Nombre de archivo del subtítuloThe.Lord.of.the.Rings-The.Fellowship.of.the.Ring[2001].srt (128406bytes) vista previa

Comentario del que lo subióGeneral
Complete name : The.Lord.of.the.Rings-The.Fellowship.of.the.Ring[2001]/The.Lord.of.the.Rings-The.Fellowship.of.the.Ring[2001].mp4
Format : MPEG-4
Format profile : Base Media / Version 2
Codec ID : mp42
File size : 3.00 GiB
Duration : 3h 48mn
Overall bit rate mode : Variable
Overall bit rate : 1 884 Kbps
Encoded date : UTC 2011-06-10 04:21:37
Tagged date : UTC 2011-06-10 04:21:37
Writing application : Yamb 2.1.0.0 [yamb.unite-video.com]
Video
ID : 1
Format : AVC
Format/Info : Advanced Video Codec
Format profile : [email protected]
Format settings, CABAC : Yes
Format settings, ReFrames : 4 frames
Codec ID : avc1
Codec ID/Info : Advanced Video Coding
Duration : 3h 48mn
Bit rate : 1 459 Kbps
Maximum bit rate : 7 975 Kbps
Width : 1 280 pixels
Height : 534 pixels
Display aspect ratio : 2.40:1
Frame rate mode : Constant
Frame rate : 23.976 fps
Color space : YUV
Chroma subsampling : 4:2:0
Bit depth : 8 bits
Scan type : Progressive
Bits/(Pixel*Frame) : 0.089
Stream size : 2.32 GiB (77%)
Writing library : x264 core 114 r1924 08d04a4
Encoding settings : cabac=1 / ref=3 / deblock=1:0:0 / analyse=0x3:0x113 / me=umh / subme=7 / psy=1 / psy_rd=1.00:0.00 / mixed_ref=1 / me_range=16 / chroma_me=0 / trellis=2 / 8x8dct=1 / cqm=0 / deadzone=21,11 / fast_pskip=0 / chroma_qp_offset=-2 / threads=3 / sliced_threads=0 / nr=0 / decimate=1 / interlaced=0 / constrained_intra=0 / bframes=3 / b_pyramid=2 / b_adapt=2 / b_bias=0 / direct=3 / weightb=1 / open_gop=0 / weightp=2 / keyint=250 / keyint_min=23 / scenecut=40 / intra_refresh=0 / rc_lookahead=40 / rc=2pass / mbtree=1 / bitrate=1459 / ratetol=1.0 / qcomp=0.50 / qpmin=10 / qpmax=51 / qpstep=4 / cplxblur=20.0 / qblur=0.5 / vbv_maxrate=24000 / vbv_bufsize=24000 / nal_hrd=none / ip_ratio=1.40 / aq=1:1.00
Encoded date : UTC 2011-06-10 04:21:37
Tagged date : UTC 2011-06-10 04:25:45
Audio #1
ID : 2
Format : AAC
Format/Info : Advanced Audio Codec
Format profile : LC
Codec ID : 40
Duration : 3h 48mn
Bit rate mode : Variable
Bit rate : 125 Kbps
Maximum bit rate : 147 Kbps
Channel(s) : 2 channels
Channel positions : Front: L R
Sampling rate : 48.0 KHz
Compression mode : Lossy
Stream size : 203 MiB (7%)
Encoded date : UTC 2011-06-10 04:24:33
Tagged date : UTC 2011-06-10 04:25:45
Audio #2
ID : 3
Format : AAC
Format/Info : Advanced Audio Codec
Format profile : LC
Codec ID : 40
Duration : 3h 48mn
Bit rate mode : Variable
Bit rate : 294 Kbps
Maximum bit rate : 321 Kbps
Channel(s) : 6 channels
Channel positions : Front: L C R, Side: L R, LFE
Sampling rate : 48.0 KHz
Compression mode : Lossy
Stream size : 481 MiB (16%)
Encoded date : UTC 2011-06-10 04:24:47
Tagged date : UTC 2011-06-10 04:25:45
Nombre del estrenoThe.Lord.of.the.Rings-The.Fellowship.of.the.Ring[2001]
Quién lo subió:sadh @ . descargado2130x () . Borrar de los favoritosAñadir a los favoritos . Informar de película incorrectaInformar de película incorrecta

Subido desde BSPlayer v2.57 desarrollado por bst2

Comentario

acceder añadir comentarios.

Enlaces interesantes
Todos los subtítulos de esta película en este idiomaTodos los subtítulos de esta película
Todos los subtítulos de este usuarioSolicitar este subtítulo para un estreno diferente
Sobre la película:Sobre la película @ http://www.imdb.comBuscar archivo:The Lord of the Rings: The Fellowship of the Ring downloadThe Lord of the Rings: The Fellowship of the Ring SevenTorrentsDownload warez
Estreno:Estreno @ http://www.btarena.orgEstreno @ http://nfo.raidrush.wsSitio Oficial:Allocine (French) | Aurum [es] | Der Herr der Ringe - The official German Site | New Line Productions | Official Facebook
Trailers:Trailers @ http://www.imdb.comPosters:The Lord of the Rings: The Fellowship of the Ring movie postersposter at movieposters.2038.netPosters @ http://www.imdb.com
Cubiertas:Cubiertas @ http://www.allcdcovers.comCubiertas @ http://www.cdcovers.ccCubiertas @ http://www.cdcovers.to
Subtítulos:Subtítulos @ http://subtitles.movieSubtítulos The Lord of the Rings: The Fellowship of the RingOtros:Tu enlace aquí
Detalles del FilmAKA:El señor de los anillos: La comunidad del anillo (spa), El senyor dels anells: La comunitat de l'anell (spa), El senyor dels anells: La germandat de l'anell (spa), Lord of the Rings - Fellowship of the Ring (eng), Lord of the Rings The Fellowship of the Ring (eng), LOTR - TFOTR (eng), Non-english subtitles (eng), Sagan om Ringen (swe) (eng), The Fellowship of the Ring (eng), The Lord of the Rings: The Fellowship of the Ring (eng), The Lord of the Rings: The Fellowship of the Ring: The Motion Picture (eng), Властелин колец: Братство кольца (eng), Володар перснiв: Хранителi персня (eng)
Puntuación del Film:8.8 / 10 (1332077)
[ La leyenda cobra vida ] - En la Tierra Media, el Señor Oscuro Saurón creó los Grandes Anillos de Poder, forjados por los herreros Elfos. Tres para los reyes Elfos, siete para los Señores Enanos, y nueve para los Hombres Mortales. Secretamente, Saurón también forjó un anillo maestro, el Anillo Único, que contiene en sí el poder para esclavizar a toda la Tierra Media. Con la ayuda de un grupo de amigos y de valientes aliados, Frodo emprende un peligroso viaje con la misión de destruir el Anillo Único. Pero el Señor Oscuro Sauron, quien creara el Anillo, envía a sus servidores para perseguir al grupo. Si Sauron lograra recuperar el Anillo, sería el final de la Tierra Media.
Dirigido por:
download subtitle