Bloqueo de anuncios detectado, considere apoyarnos www.OpenSubtitles.org de otra manera
X
Búsqueda avanzada
Ver películas con subtítulos usando Open Subtitles MKV Player. Es sencillo y gratis, compatible con Windows.

El señor de los anillos: El retorno del Rey Espańól subtítulos (2003) 1CD srt

film

Comprar en Amazon

Detalles del subtítulos

Descarga
Gracias%valor% Gracias recibidas

Tipo de calidad de subtítulos

Tipo de CALIDAD de subtítulos con 1 de puntaje (mala) Tipo de CALIDAD de subtítulos con 3 de puntaje (baja) Tipo de CALIDAD de subtítulos con 5 de puntaje (regular) Tipo de CALIDAD de subtítulos con 7 de puntaje (buena) Tipo de CALIDAD de subtítulos con 10 de puntaje (excelente)

Comentario

Stream this movie on alluc.com

Nombre de archivo del subtítuloThe.Lord.of.the.Rings-The.Return.of.the.King[2003].mp4.srt (122292bytes) vista previa

							Hash - BSPlayer v2.62Lord_of_the_Rings_Return_of_the_King_Ext_2003_1080p_BluRay_Q | 4290085058 | Archivos de película

							Hash - SubDownloader 2.0.14The Return of the King 2003 EXTENDED 720p BRRip [A Release-L | 3761252291 | Archivos de película

							Hash - BSPlayer v2.67The.Lord.of.the.Rings.The.Return.of.the.King.EXTENDED.2003.7 | 1827743197 | Archivos de película

							Hash - BSPlayer v2.58Lord_of_the_Rings_Return_of_the_King_Ext_2003_1080p_BluRay_Q | 4290085281 | Archivos de película

							Hash - FileBot 4.1The Lord of the Rings The Return of the King (2003).mp4 | 2043806685 | Archivos de película

							Hash - BSPlayer v2.66The.Return.of.the.King.Extended.Editions.2003.anoXmous_.mp4 | 4827746257 | Archivos de película

							Hash - BSPlayer v2.58LOTR 2003 BDRip 720p [Eng-Hindi].MKV | 4341735162 | Archivos de película

							Hash - BSPlayer v2.63LOTR.The.Return.of.the.King.2003.EXTENDED..AC3.720p.XViD-Rem | 6614423552 | Archivos de película

							Hash - BSPlayer v2.69The Return of the King (2003).mp4 | 6940340655 | Archivos de película

							Hash - BSPlayer v2.63The Return of the King 2003 1080p Bluray 10-bit DTS-HD 6.1 X | 43627294635 | Archivos de película

							Hash - BSPlayer v2.61The Lord of the Rings- The Return of the King.mkv | 1251220847 | Archivos de película

Comentario del que lo subióGeneral
Complete name :The.Lord.of.the.Rings-The.Return.of.the.King[2003]/The.Lord.of.the.Rings-The.Return.of.the.King[2003].mp4
Format : MPEG-4
Format profile : Base Media / Version 2
Codec ID : mp42
File size : 3.50 GiB
Duration : 4h 23mn
Overall bit rate mode : Variable
Overall bit rate : 1 905 Kbps
Encoded date : UTC 2011-06-14 07:23:55
Tagged date : UTC 2011-06-14 07:23:55
Writing application : Yamb 2.1.0.0 [yamb.unite-video.com]
Video
ID : 1
Format : AVC
Format/Info : Advanced Video Codec
Format profile : [email protected]
Format settings, CABAC : Yes
Format settings, ReFrames : 4 frames
Codec ID : avc1
Codec ID/Info : Advanced Video Coding
Duration : 4h 23mn
Bit rate : 1 481 Kbps
Maximum bit rate : 7 190 Kbps
Width : 1 280 pixels
Height : 532 pixels
Display aspect ratio : 2.40:1
Frame rate mode : Constant
Frame rate : 23.976 fps
Color space : YUV
Chroma subsampling : 4:2:0
Bit depth : 8 bits
Scan type : Progressive
Bits/(Pixel*Frame) : 0.091
Stream size : 2.72 GiB (78%)
Writing library : x264 core 114 r1924 08d04a4
Encoding settings : cabac=1 / ref=3 / deblock=1:0:0 / analyse=0x3:0x113 / me=umh / subme=7 / psy=1 / psy_rd=1.00:0.00 / mixed_ref=1 / me_range=16 / chroma_me=0 / trellis=2 / 8x8dct=1 / cqm=0 / deadzone=21,11 / fast_pskip=0 / chroma_qp_offset=-2 / threads=3 / sliced_threads=0 / nr=0 / decimate=1 / interlaced=0 / constrained_intra=0 / bframes=3 / b_pyramid=2 / b_adapt=2 / b_bias=0 / direct=3 / weightb=1 / open_gop=0 / weightp=2 / keyint=250 / keyint_min=23 / scenecut=40 / intra_refresh=0 / rc_lookahead=40 / rc=2pass / mbtree=1 / bitrate=1481 / ratetol=1.0 / qcomp=0.50 / qpmin=10 / qpmax=51 / qpstep=4 / cplxblur=20.0 / qblur=0.5 / vbv_maxrate=24000 / vbv_bufsize=24000 / nal_hrd=none / ip_ratio=1.40 / aq=1:1.00
Encoded date : UTC 2011-06-14 07:23:55
Tagged date : UTC 2011-06-14 07:28:38
Audio #1
ID : 2
Format : AAC
Format/Info : Advanced Audio Codec
Format profile : LC
Codec ID : 40
Duration : 4h 23mn
Bit rate mode : Variable
Bit rate : 124 Kbps
Maximum bit rate : 145 Kbps
Channel(s) : 2 channels
Channel positions : Front: L R
Sampling rate : 48.0 KHz
Compression mode : Lossy
Stream size : 234 MiB (7%)
Encoded date : UTC 2011-06-14 07:27:12
Tagged date : UTC 2011-06-14 07:28:38
Audio #2
ID : 3
Format : AAC
Format/Info : Advanced Audio Codec
Format profile : LC
Codec ID : 40
Duration : 4h 23mn
Bit rate mode : Variable
Bit rate : 294 Kbps
Maximum bit rate : 322 Kbps
Channel(s) : 6 channels
Channel positions : Front: L C R, Side: L R, LFE
Sampling rate : 48.0 KHz
Compression mode : Lossy
Stream size : 553 MiB (15%)
Encoded date : UTC 2011-06-14 07:27:30
Tagged date : UTC 2011-06-14 07:28:38
Nombre del estrenoThe.Lord.of.the.Rings-The.Return.of.the.King[2003]23.976 FPS
Quién lo subió:sadh @ . descargado3934x () . Borrar de los favoritosAñadir a los favoritos . Informar de película incorrectaInformar de película incorrecta

Subido desde BSPlayer v2.62 desarrollado por bst2

Comentario

acceder añadir comentarios.

Enlaces interesantes
Todos los subtítulos de esta película en este idiomaTodos los subtítulos de esta película
Todos los subtítulos de este usuarioSolicitar este subtítulo para un estreno diferente
Sobre la película:Sobre la película @ http://www.imdb.comBuscar archivo:The Lord of the Rings: The Return of the King downloadThe Lord of the Rings: The Return of the King SevenTorrentsDownload warez
Estreno:Estreno @ http://www.btarena.orgEstreno @ http://nfo.raidrush.wsSitio Oficial:Official Facebook | Official site: The Lord of the Rings Trilogy | Warner Bros [de]
Trailers:Trailers @ http://www.imdb.comPosters:The Lord of the Rings: The Return of the King movie postersposter at movieposters.2038.netPosters @ http://www.imdb.com
Cubiertas:Cubiertas @ http://www.allcdcovers.comCubiertas @ http://www.cdcovers.ccCubiertas @ http://www.cdcovers.to
Subtítulos:Subtítulos @ https://hitsubtitles.comSubtítulos The Lord of the Rings: The Return of the KingOtros:Tu enlace aquí
Detalles del FilmAKA:El senyor dels anells: El retorn del rei (spa), El señor de los anillos - El retorno del rey (spa), El señor de los anillos: El retorno del rey (spa), Lord Of The Rings The Return Of The King (eng), LOTR - 3 (eng), The Lord of the Rings: The Return of the King (eng), The Return of the King (eng), Володар перснiв: Повернення короля (eng), Der Herr der Ringe 3 Die Rueckkehr des Koenigs iD (eng)
Puntuación del Film:8.9 / 10 (1307484)
[ El viaje llega a su fin ] - Las fuerzas de Saruman han sido destruidas, y su fortaleza sitiada. Ha llegado el momento de que se decida el destino de la Tierra Media, y por primera vez en mucho tiempo, parece que hay una pequeña esperanza. La atención del señor oscuro Sauron se centra ahora en Gondor, el último reducto de los hombres, y del cual Aragorn tendrá que reclamar el trono para ocupar su puesto de Rey. Pero las fuerzas de Sauron ya se preparan para lanzar el último y definitivo ataque contra el reino de Gondor, la batalla que decidirá el destino de todos. Mientras tanto, Frodo y Sam continuan su camino hacia Mordor, a la espera de que Sauron no repare en que dos pequeños Hobbits se acercan cada día más al final de su camino, el Monte del Destino.
Dirigido por:
Eliminar publicidad
download subtitle