Ad blocking detected, consider supporting www.OpenSubtitles.org in an other way
X
Advanced search
Hide ads

Subtitles for high-definition movie

Hero Spanish subtitles (2002) 1CD srt

film

Buy at Amazon

Subtitle details

Download
Thanks

Rate quality of subtitles

Rate QUALITY of subtitles with 1 point (bad)  Rate QUALITY of subtitles with 3 point (poor)  Rate QUALITY of subtitles with 5 point (okay)  Rate QUALITY of subtitles with 7 point (good)  Rate QUALITY of subtitles with 10 point (excellent)

Comment

Subtitle filenameHero.2002.720p.BluRay.x264-[YTS.AG].srt (41269bytes) show preview

Uploader commentComplete name : /media/sduarte/DATA/Descargas/Pendientes/Hero (2002) [YTS.AG]/Hero.2002.720p.BluRay.x264-[YTS.AG].mp4
Format : MPEG-4
Format profile : Base Media
Codec ID : isom (isom/iso2/avc1/mp41)
File size : 726 MiB
Duration : 1h 39mn
Overall bit rate : 1 024 Kbps
Encoded date : UTC 1904-01-01 00:00:00
Tagged date : UTC 1904-01-01 00:00:00
Writing application : Lavf57.22.100
Video
ID : 1
Format : AVC
Format/Info : Advanced Video Codec
Format profile : High@L4.1
Format settings, CABAC : Yes
Format settings, ReFrames : 4 frames
Codec ID : avc1
Codec ID/Info : Advanced Video Coding
Duration : 1h 39mn
Bit rate : 900 Kbps
Width : 1 280 pixels
Height : 544 pixels
Display aspect ratio : 2.35:1
Frame rate mode : Constant
Frame rate : 23.976 (24000/1001) fps
Color space : YUV
Chroma subsampling : 4:2:0
Bit depth : 8 bits
Scan type : Progressive
Bits/(Pixel*Frame) : 0.054
Stream size : 638 MiB (88%)
Writing library : x264 core 148
Encoding settings : cabac=1 / ref=4 / deblock=1:-1:-1 / analyse=0x3:0x133 / me=umh / subme=9 / psy=1 / psy_rd=1.00:0.15 / mixed_ref=1 / me_range=24 / chroma_me=1 / trellis=2 / 8x8dct=1 / cqm=0 / deadzone=21,11 / fast_pskip=0 / chroma_qp_offset=-3 / threads=12 / lookahead_threads=1 / sliced_threads=0 / nr=0 / decimate=1 / interlaced=0 / bluray_compat=0 / constrained_intra=0 / bframes=3 / b_pyramid=2 / b_adapt=2 / b_bias=0 / direct=3 / weightb=1 / open_gop=0 / weightp=2 / keyint=250 / keyint_min=23 / scenecut=40 / intra_refresh=0 / rc_lookahead=60 / rc=2pass / mbtree=1 / bitrate=900 / ratetol=1.0 / qcomp=0.60 / qpmin=0 / qpmax=69 / qpstep=4 / cplxblur=20.0 / qblur=0.5 / vbv_maxrate=31250 / vbv_bufsize=31250 / nal_hrd=none / filler=0 / ip_ratio=1.40 / aq=1:1.00
Encoded date : UTC 1904-01-01 00:00:00
Tagged date : UTC 1904-01-01 00:00:00
Audio
ID : 2
Format : AAC
Format/Info : Advanced Audio Codec
Format profile : LC
Codec ID : 40
Duration : 1h 39mn
Bit rate mode : Constant
Bit rate : 117 Kbps
Channel(s) : 2 channels
Channel positions : Front: L R
Sampling rate : 48.0 KHz
Frame rate : 46.875 fps (1024 spf)
Compression mode : Lossy
Stream size : 83.1 MiB (11%)
Default : Yes
Alternate group : 1
Encoded date : UTC 1904-01-01 00:00:00
Tagged date : UTC 1904-01-01 00:00:00
Release nameHero (2002) [YTS.AG]
Uploadersadh @ . downloaded286x () . Remove from favouritesAdd to favourites . Correct subtitlesCorrect subtitles

Uploaded from SubDownloader 2.0.18 developed by capiscuas

Comment

log-in to post comments.

Ying xiong subtitles Spanish
Release name#CD UploadedDownloadedSubtitle ratingUploader
Hero.[Ying.xiong].2002.BluRay.720p.H2641CD714x 0.00argentronic
Jet.Li.Hero.uncut.DVDrip.Eng.Xvid.ac3.SWBK1CD170x 0.00
Hero (2002) extended cut1CD146x 0.00
hero-postx1CD81x 0.00
Hero (2002)Jet Li-spa(1)1CD424x 0.00
JET LI HERO - ENG SUB AVI HQ1CD194x 0.00
Hero [2002] 720p BRRip H264 AC3 - CODY1CD331x 0.00
Ying.xiong.2002.720p.BluRay.DTS.x264-DON1CD1242x 0.00
hero.2002.dvdrip.xvid.ac3.6ch-[gx]1CD248x 0.00
Hero1CD2341x 0.00bebalakiller
Interesting links
All subtitles for this movie in this languageAll subtitles for this movie
All subtitles from this userRequest this subtitle for a different release
About movie:About movie @ http://www.imdb.comFind file:Download Ying xiongYing xiong watch online for freeYing xiong downloadDownload warez
Release:Release @ http://www.btarena.orgRelease @ http://nfo.raidrush.wsOfficial site:Miramax [us] | Official site | official site [de] | Warner Bros [jp]
Trailers:Trailers @ http://www.imdb.comPosters:Ying xiong movie postersposter at movieposters.2038.netPosters @ http://www.imdb.com
Covers:Covers @ https://www.allcdcovers.comCovers @ http://www.cdcovers.ccCovers @ http://www.cdcovers.to
Movie detailsAKA:Hero de Zhang Yimou (spa), Héroe (eng), Hős (eng), Jet Li's Hero (eng), Quentin Tarantino Presents Hero (eng), Ying xiong (eng), Hero (eng), Hero, Ying Xiong (eng)
Movie Rating:7.9 / 10 (158740)
[ One man's strength will unite an empire. ] - One man defeated three assassins who sought to murder the most powerful warlord in pre-unified China.
Directed by:
Writer credits:
Language:
Hide ads
download subtitle