Missing Privacy  Support us:
X
Advanced search
Watch movies with subtitles using Open Subtitles MKV Player. It is free and clean, works under Windows.

Subtitles for high-definition movie

Assault on Wall Street English subtitles (2013) 1CD srt

film

Buy at Amazon

Subtitle details

Download
Thanks1 thanks received

Rate quality of subtitles

Rate QUALITY of subtitles with 1 point (bad)  Rate QUALITY of subtitles with 3 point (poor)  Rate QUALITY of subtitles with 5 point (okay)  Rate QUALITY of subtitles with 7 point (good)  Rate QUALITY of subtitles with 10 point (excellent)

Comment

Comment

log-in to post comments.


sadh @
Format : AVI
Format/Info : Audio Video Interleave
File size : 704 MiB
Duration : 1h 38mn
Overall bit rate : 995 Kbps
Writing application : MEncoder SVN-r31918
Writing library : MPlayer
Video
ID : 0
Format : MPEG-4 Visual
Format profile : Advanced [email protected]
Format settings, BVOP : 2
Format settings, QPel : No
Format settings, GMC : No warppoints
Format settings, Matrix : Default (H.263)
Codec ID : XVID
Codec ID/Hint : XviD
Duration : 1h 38mn
Bit rate : 854 Kbps
Width : 640 pixels
Height : 352 pixels
Display aspect ratio : 16:9
Original display aspect ratio : 16:9
Frame rate : 23.976 fps
Color space : YUV
Chroma subsampling : 4:2:0
Bit depth : 8 bits
Scan type : Progressive
Compression mode : Lossy
Bits/(Pixel*Frame) : 0.158
Stream size : 604 MiB (86%)
Writing library : XviD 1.2.1 (UTC 2008-12-04)
Audio
ID : 1
Format : MPEG Audio
Format version : Version 1
Format profile : Layer 3
Mode : Joint stereo
Mode extension : MS Stereo
Codec ID : 55
Codec ID/Hint : MP3
Duration : 1h 38mn
Bit rate mode : Constant
Bit rate : 128 Kbps
Channel(s) : 2 channels
Sampling rate : 48.0 KHz
Compression mode : Lossy
Delay relative to video : 42ms
Stream size : 90.5 MiB (13%)
Alignment : Aligned on interleaves
Interleave, duration : 24 ms (0.58 video frame)
Interleave, preload duration : 504 ms
Writing library : LAME3.98.4
Assault on Wall Street subtitles English
Release name#CD UploadedDownloadedSubtitle ratingUploader
Assault on Wall Street (2013)1CD524x 0.00gene2
Assault.on.Wall.Street.2013.MULTiSubs.720p.BluRay.DTS.x264... 1CD361x 0.00
Assault on Wall Street (2013) 1080p BluRay AC3 HQ Eng NL S... 1CD1274x 0.00outlaw77
Assault.On.Wall.Street.2013.1080p.Bluray.x264-BARC0DE1CD1016x 0.00
Assault On Wall Street 2013 720p Bluray DTS x264 SilverTor... 1CD1492x 0.00Worldwide7477
Assault.on.Wall.Street.2013.720p.BluRay.x264.YIFY1CD3496x 0.00hisami
Assault.On.Wall.Street.2013.720p.BluRay.x264-PublicHD1CD8575x 0.00gene2
Assault on Wall Street1CD4689x 0.00
Assault.on.Wall.Street.2013.BRRip XViD juggsSubtitles from trusted source1CD5178x 0.00airsubs
Assault.on.Wall.Street.2013.720p.BluRay.x264.YIFY1CD11815x 10.00pantera2009
Interesting links
All subtitles for this movie in this languageAll subtitles for this movie
All subtitles from this userRequest this subtitle for a different release
About movie:About movie @ http://www.imdb.comFind file:Assault on Wall Street downloadAssault on Wall Street SevenTorrentsDownload warez
Release:Release @ http://www.btarena.orgRelease @ http://nfo.raidrush.wsOfficial site:Official Facebook
Trailers:Trailers @ http://www.imdb.comPosters:Assault on Wall Street movie postersPosters @ http://www.imdb.com
Covers:Covers @ http://www.allcdcovers.comCovers @ http://www.cdcovers.ccCovers @ http://www.cdcovers.to
Subtitles:Subtitles @ http://subtitles.movieEnglish Subtitles Assault on Wall StreetOthers:Your link here
Movie detailsAKA:Assault on Wall Street (eng), Bailout: The Age of Greed (eng)
Movie Rating:6.1 / 10 (17805)
[ Power. Greed. Justice. ] - Jim is an average New Yorker living a peaceful life with a well paying job and a loving family. Suddenly, everything changes when the economy crashes causing Jim to lose everything. Filled with anger and rage, Jim snaps and goes to extreme lengths to seek revenge for the life taken from him.
Directed by:
Country:
Language:
download subtitle