Missing Privacy  Support us:
X
Advanced search
Watch movies with subtitles using Open Subtitles MKV Player. It is free and clean, works under Windows.

Subtitles for high-definition movie

Perfect Sense English subtitles (2011) 1CD srt

film

Buy at Amazon

Subtitle details

Download
Thanks2 thanks received

Rate quality of subtitles

Rate QUALITY of subtitles with 1 point (bad)  Rate QUALITY of subtitles with 3 point (poor)  Rate QUALITY of subtitles with 5 point (okay)  Rate QUALITY of subtitles with 7 point (good)  Rate QUALITY of subtitles with 10 point (excellent)

Comment

Subtitle filenamePerfect.Sense.2011.720p.BrRip.x264.YIFY.srt (60153bytes) show preview

Uploader commentGeneral
IMDB : www.imdb.com/title/tt1439572/combined
Complete name : Perfect.Sense[2011]/Perfect.Sense.2011.720p.BrRip.x264.YIFY.mp4
Format : MPEG-4
Format profile : Base Media
Codec ID : isom
File size : 602 MiB
Duration : 1h 32mn
Overall bit rate mode : Variable
Overall bit rate : 913 Kbps
Encoded date : UTC 2012-03-07 19:38:12
Tagged date : UTC 2012-03-07 19:38:12
Video
ID : 1
Format : AVC
Format/Info : Advanced Video Codec
Format profile : [email protected]
Format settings, CABAC : Yes
Format settings, ReFrames : 5 frames
Codec ID : avc1
Codec ID/Info : Advanced Video Coding
Duration : 1h 32mn
Bit rate : 846 Kbps
Maximum bit rate : 8 386 Kbps
Width : 1 280 pixels
Height : 544 pixels
Display aspect ratio : 2.35:1
Frame rate mode : Constant
Frame rate : 24.000 fps
Color space : YUV
Chroma subsampling : 4:2:0
Bit depth : 8 bits
Scan type : Progressive
Bits/(Pixel*Frame) : 0.051
Stream size : 558 MiB (93%)
Writing library : x264 core 120 r2164 da19765
Encoding settings : cabac=1 / ref=5 / deblock=1:-2:-1 / analyse=0x3:0x113 / me=umh / subme=8 / psy=1 / psy_rd=1.00:0.00 / mixed_ref=1 / me_range=16 / chroma_me=1 / trellis=1 / 8x8dct=1 / cqm=0 / deadzone=21,11 / fast_pskip=1 / chroma_qp_offset=-2 / threads=6 / sliced_threads=0 / nr=0 / decimate=1 / interlaced=0 / bluray_compat=0 / constrained_intra=0 / bframes=3 / b_pyramid=2 / b_adapt=2 / b_bias=0 / direct=3 / weightb=1 / open_gop=0 / weightp=2 / keyint=240 / keyint_min=24 / scenecut=40 / intra_refresh=0 / rc_lookahead=50 / rc=2pass / mbtree=1 / bitrate=846 / ratetol=1.0 / qcomp=0.60 / qpmin=10 / qpmax=51 / qpstep=4 / cplxblur=20.0 / qblur=0.5 / ip_ratio=1.40 / aq=1:1.00
Encoded date : UTC 2012-03-07 19:38:12
Tagged date : UTC 2012-03-07 19:42:39
Audio
ID : 2
Format : AAC
Format/Info : Advanced Audio Codec
Format profile : HE-AAC / LC
Codec ID : 40
Duration : 1h 32mn
Bit rate mode : Variable
Bit rate : 64.0 Kbps
Maximum bit rate : 74.2 Kbps
Channel(s) : 2 channels
Channel positions : Front: L R
Sampling rate : 48.0 KHz / 24.0 KHz
Compression mode : Lossy
Stream size : 42.2 MiB (7%)
Encoded date : UTC 2012-03-07 19:42:34
Tagged date : UTC 2012-03-07 19:42:39
Release namePerfect.Sense.2011.720p.BrRip.x264.YIFY.mp424.000 FPS
Uploadersadh @ . downloaded9305x () . Remove from favouritesAdd to favourites . Correct subtitlesCorrect subtitles

Uploaded from SubDownloader 2.0.14 developed by capiscuas

Comment

log-in to post comments.

Perfect Sense subtitles English
Release name#CD UploadedDownloadedSubtitle ratingUploader
Perfect.Sense.LIMITED.720p.Bluray.x2641CD168x 0.00
Perfect Sense 2011 720p BrRip x264 600MB YIFYSubtitles for hearing impaired1CD1320x 0.00sene14822
Perfect Sense 2011 720p BrRip x264 600MB YIFYSubtitles for hearing impaired1CD480x 0.00sene14822
Perfect Sense 2011 [DVDRip.XviD.3LT0N-miguel]1CD634x 0.00Boomie
Perfect Sense(2011)-DVDRIp Xvid-THC1CD431x 0.00
Perfect.Sense.LIMITED.720p.Bluray.x264-CBGB1CD968x 0.00
Perfect.Sense.2011.720p.BR.650MB.ShAaNiG1CD390x 0.00
5rFF-psenc480p1CD345x 0.00
Perfect.Sense.2011.720p.BluRay.x264.DTS-WiKiSubtitles from trusted source1CD2285x 0.00spaceboy74
Perfect.Sense.2011.1080p.MKV.x264.AC3.DTS.HQ.NL.Subs1CD930x 0.00
Interesting links
All subtitles for this movie in this languageAll subtitles for this movie
All subtitles from this userRequest this subtitle for a different release
About movie:About movie @ http://www.imdb.comFind file:Perfect Sense downloadPerfect Sense SevenTorrentsDownload warez
Release:Release @ http://www.btarena.orgRelease @ http://nfo.raidrush.wsOfficial site:Official Facebook | Official Twitter | Official site [jp] | Sigma Films [uk]
Trailers:Trailers @ http://www.imdb.comPosters:Perfect Sense movie postersPosters @ http://www.imdb.com
Covers:Covers @ http://www.allcdcovers.comCovers @ http://www.cdcovers.ccCovers @ http://www.cdcovers.to
Subtitles:Subtitles @ https://hitsubtitles.comEnglish Subtitles Perfect SenseOthers:Your link here
Movie detailsAKA:ETRG (eng), Perfect Sense (eng), The Last Word (eng)
Movie Rating:7.1 / 10 (44819)
[ Without love there is nothing. ] - Susan is a scientist searching for answers to important questions. So important that she has given up on other things, like love - until she meets Micheal. Susan and Michael find themselves embarking on a sensual adventure while the world around them seems to be falling apart. A life-affirming look at what it means to love and be loved in turbulent times.
Directed by:
Writer credits:
Hide ads
download subtitle