Ad blocking detected, consider supporting www.OpenSubtitles.org in an other way
X
Advanced search
Watch movies with subtitles using Open Subtitles MKV Player. It is free and clean, works under Windows.

Subtitles for hearing impairedSubtitles for high-definition movie

Real Steel English subtitles (2011) 1CD srt

film

Buy at Amazon

Subtitle details

Download
Thanks3 thanks received

Rate quality of subtitles

Rate QUALITY of subtitles with 1 point (bad)  Rate QUALITY of subtitles with 3 point (poor)  Rate QUALITY of subtitles with 5 point (okay)  Rate QUALITY of subtitles with 7 point (good)  Rate QUALITY of subtitles with 10 point (excellent)

Comment

Add subtitles to your movies with Freemake Video Converter

Subtitle filenameReal.Steel.2011.720p.BluRay.x264-REFiNED.srt (115197bytes) show preview

							Hash - BSPlayer v2.63Real.Steel.2011.720p.BrRip.264.YIFY.mp4 | 896114006 | Movie filenames

							Hash - derivedReal.Steel.2011.720p.BRRip.x264.AAC-ViSiON.mp4 | 2340725931 | Movie filenames

							Hash - BSPlayer v2.57refined-realsteel-720p.mkv | 5856569821 | Movie filenames

							Hash - BSPlayer v2.63Real.Steel.2011.BDRip.XVID.AC3.HQ.Hive-CM8.avi | 2052364288 | Movie filenames

							Hash - derivedReal Steel[2011]DVDRip XviD-ExtraTorrentRG.avi | 732625584 | Movie filenames

							Hash - derivedR34l_1480986477813.St3l.hdm0v13sp01nt.c0m.mp4 | 2098401365 | Movie filenames

							Hash - BSPlayer v2.70Real.Steel.2011.720p.BrRip.264.YIFY.mkv | 894977362 | Movie filenames

							Hash - BSPlayer v2.64Real.Steel.2011.720p.BrRip.264.YIFY.mp4 | 896114006 | Movie filenames

							Hash - BSPlayer v2.63Real Steel.m2ts.avi | 4285077504 | Movie filenames

							Hash - BSPlayer v2.56Real Steel {2011} DVDRIP. Jaybob.avi | 839851894 | Movie filenames

							Hash - BSPlayer v2.70Real.Steel.2011.BRRip.XviD-VoXHD.avi | 2624423414 | Movie filenames

							Hash - BSPlayer v2.58refined-realsteel-720p.mkv | 6284595163 | Movie filenames

							Hash - BSPlayer v2.70Real Steel (2011) DVDRip XviD-MAXSPEED www.torentz.3xforum.r | 1510527232 | Movie filenames

							Hash - BSPlayer v2.57Real steel.mp4 | 2340726154 | Movie filenames

							Hash - derived2223130701 | Movie filenames

							Hash - BSPlayer v2.571-3-3-8.com_rrlstl.mkv | 5856570037 | Movie filenames

							Hash - FileBot v4.7Real Steel (2011).mp4 | 899070852 | Movie filenames

							Hash - BSPlayer v2.70Real.Steel.2011.720p.BluRay.x264.HEFF.mp4 | 991190410 | Movie filenames

							Hash - derived941988164 | Movie filenames

							Hash - BSPlayer v2.70Real Steel 2011 720p BRRip.mkv | 2331589362 | Movie filenames

Uploader commentVideo: Xvid 720x304 23.98fps [Stream 00]
Audio: MPEG Audio Layer 3 48000Hz stereo 128kbps [Stream 01]
Format : AVI
Format/Info : Audio Video Interleave
File size : 1.37 GiB
Duration : 2h 6mn
Overall bit rate : 1 548 Kbps
Writing library : VirtualDub build 32842/release
Video
ID : 0
Format : MPEG-4 Visual
Format profile : [email protected]
Format settings, BVOP : Yes
Format settings, QPel : No
Format settings, GMC : No warppoints
Format settings, Matrix : Default (H.263)
Muxing mode : Packed bitstream
Codec ID : XVID
Codec ID/Hint : XviD
Duration : 2h 6mn
Bit rate : 1 410 Kbps
Width : 720 pixels
Height : 304 pixels
Display aspect ratio : 2.35:1
Frame rate : 23.976 fps
Resolution : 24 bits
Colorimetry : 4:2:0
Scan type : Progressive
Bits/(Pixel*Frame) : 0.269
Stream size : 1.25 GiB (91%)
Writing library : XviD 64
Audio
ID : 1
Format : MPEG Audio
Format version : Version 1
Format profile : Layer 3
Codec ID : 55
Codec ID/Hint : MP3
Duration : 2h 6mn
Bit rate mode : Constant
Bit rate : 128 Kbps
Channel(s) : 2 channels
Sampling rate : 48.0 KHz
Resolution : 16 bits
Stream size : 116 MiB (8%)
Alignment : Split accross interleaves
Interleave, duration : 42 ms (1.00 video frame)
Interleave, preload duration : 500 ms
Writing library : LAMELAME_MAJOR_VERSI
Release nameReal.Steel.2011.720p.BluRay.x264-REFiNED23.980 FPS
UploaderAnonymous @ . downloaded11734x () . Remove from favouritesAdd to favourites . Correct subtitlesCorrect subtitles

Uploaded from BSPlayer v2.63 developed by bst2

Comment

log-in to post comments.

Real Steel subtitles English
Release name#CD UploadedDownloadedSubtitle ratingUploader
Real.Steel.2011.720p.BluRay.x264-REFiNED1CD4748x 10.00kbabir
Real Steel 2011 BluRay 1080p DTS x264-3LiSubtitles from trusted sourceSubtitles for hearing impaired1CD2506x 0.00Pirosasz
Real Steel[2011]DVDRip XviD-ETRGSubtitles for hearing impaired1CD6475x 0.00EkinEkin
Real Steel[2011]DVDRip XviD-ETRG1CD2429x 0.00EkinEkin
Real_Steel[2011]DVDRip_XviD-ExtraTorrentRG1CD2061x 0.00npdv
BluRay.1080p.DTS.x264-CHDSubtitles from trusted source1CD7457x 10.00deep_sea
Real Steel [2011] BRRip.x264.DXVA-ZoNe1CD4645x 0.00anonymous171
1080p.BluRay.DTSHD-MA.h264.Remux-decibeL1CD6837x 0.00
Real.Steel.2011.720p.BrRip.264.YIFYSubtitles from trusted source1CD13813x 0.00scooby007
Real.Steel.2011.720p.BrRip.264.YIFYSubtitles from trusted sourceSubtitles for hearing impaired1CD10248x 0.00scooby007
Interesting links
All subtitles for this movie in this languageAll subtitles for this movie
All subtitles from this userRequest this subtitle for a different release
About movie:About movie @ http://www.imdb.comFind file:Real Steel downloadReal Steel SevenTorrentsDownload warez
Release:Release @ http://www.btarena.orgRelease @ http://nfo.raidrush.wsOfficial site:DreamWorks [ca] (French) | DreamWorks [us]
Trailers:Trailers @ http://www.imdb.comPosters:Real Steel movie postersPosters @ http://www.imdb.com
Covers:Covers @ http://www.allcdcovers.comCovers @ http://www.cdcovers.ccCovers @ http://www.cdcovers.to
Subtitles:Subtitles @ https://hitsubtitles.comEnglish Subtitles Real SteelOthers:Your link here
Movie detailsAKA:Gants d'acier (eng), Gigantes de Aço (eng), Real Steel (eng), Real Steel: The IMAX Experience (eng), Реальна сталь (eng)
Movie Rating:7.1 / 10 (263226)
[ If you get one shot, make it real. ] - In the near-future, Charlie Kenton is a washed-up fighter who retired from the ring when robots took over the sport. After Charlie's robot is trashed, he reluctantly teams up with his estranged son Max to rebuild and train an unlikely contender.
Directed by:
Writer credits:
Country:
Hide ads
download subtitle