Missing Privacy  Support us:
X
Advanced search
Hide ads

The Mack English subtitles (1973) 1CD srt

film

Buy at Amazon

Subtitle details

Download
Thanks

Rate quality of subtitles

Rate QUALITY of subtitles with 1 point (bad)  Rate QUALITY of subtitles with 3 point (poor)  Rate QUALITY of subtitles with 5 point (okay)  Rate QUALITY of subtitles with 7 point (good)  Rate QUALITY of subtitles with 10 point (excellent)

Comment

Stream this movie on alluc.com

Subtitle filenameThe Mack.EN.srt (107709bytes) show preview

Uploader commentFormat : AVI
Format/Info : Audio Video Interleave
File size : 1.03 GiB
Duration : 1h 49mn
Overall bit rate : 1 340 Kbps
Video
ID : 0
Format : MPEG-4 Visual
Format profile : Simple@L1
Format settings, BVOP : No
Format settings, QPel : No
Format settings, GMC : No warppoints
Format settings, Matrix : Default (H.263)
Codec ID : DIVX
Codec ID/Info : Project Mayo
Codec ID/Hint : DivX 4
Duration : 1h 49mn
Bit rate : 1 199 Kbps
Width : 720 pixels
Height : 480 pixels
Display aspect ratio : 3:2
Frame rate : 23.976 fps
Standard : NTSC
Color space : YUV
Chroma subsampling : 4:2:0
Bit depth : 8 bits
Scan type : Progressive
Compression mode : Lossy
Bits/(Pixel*Frame) : 0.145
Stream size : 940 MiB (89%)
Writing library : avc2.0.11.1110
Audio
ID : 1
Format : MPEG Audio
Format version : Version 1
Format profile : Layer 3
Mode : Joint stereo
Mode extension : MS Stereo
Codec ID : 55
Codec ID/Hint : MP3
Duration : 1h 49mn
Bit rate mode : Constant
Bit rate : 128 Kbps
Channel(s) : 2 channels
Sampling rate : 48.0 KHz
Compression mode : Lossy
Stream size : 100 MiB (10%)
Alignment : Aligned on interleaves
Interleave, duration : 24 ms (0.58 video frame)
Writing library : LAME3.96.1
Release nameThe Mack [NoScene]23.976 FPS
Uploaderigor116 @ . downloaded311x () . Remove from favouritesAdd to favourites . Correct subtitlesCorrect subtitles

Uploaded from SubDownloader 1.2.9 developed by capiscuas

Comment

log-in to post comments.

The Mack subtitles English
Release name#CD UploadedDownloadedSubtitle ratingUploader
The.Mack.1973.DVDRip.x264-8BaLLRiPS1CD737x 0.00
The.Mack.1973.DVDRip.DivX-chuckan1CD4514x 0.00dharmabum
Interesting links
All subtitles for this movie in this languageAll subtitles for this movie
All subtitles from this userRequest this subtitle for a different release
About movie:About movie @ http://www.imdb.comFind file:Download The MackThe Mack watch online for freeThe Mack downloadDownload warez
Release:Release @ http://www.btarena.orgRelease @ http://nfo.raidrush.wsTrailers:Trailers @ http://www.imdb.com
Posters:The Mack movie postersPosters @ http://www.imdb.comCovers:Covers @ https://www.allcdcovers.comCovers @ http://www.cdcovers.ccCovers @ http://www.cdcovers.to
Others:Your link here
Movie detailsAKA:Mack (eng), The Mack and His Pack (eng)
Movie Rating:6.8 / 10 (2122)
[ There's a new kind of hero on the streets! ] - Goldie returns from five years at the state pen and winds up king of the pimping game. Trouble comes in the form of two corrupt white cops and a crime lord who wants him to return to the small time.
Directed by:
Writer credits:
Country:
Language:
Hide ads
download subtitle