Missing Privacy  Support us:
X
Advanced search
Watch movies with subtitles using Open Subtitles MKV Player. It is free and clean, works under Windows.

Critical Condition English subtitles (1987) 1CD srt

film

Buy at Amazon

Subtitle details

Download
Thanks5 thanks received


Subtitle filenameCritical Condition (1987, Widescreen).EN.srt (106413bytes) show preview

Uploader commentFormat : AVI
Format/Info : Audio Video Interleave
File size : 698 MiB
Duration : 1h 37mn
Overall bit rate : 999 Kbps
Writing application : FairUse Wizard - fairusewizard.com
Writing library : The best and REALLY easy backup tool
Video
ID : 0
Format : MPEG-4 Visual
Format profile : Advanced [email protected]
Format settings, BVOP : 1
Format settings, QPel : No
Format settings, GMC : No warppoints
Format settings, Matrix : Default (H.263)
Muxing mode : Packed bitstream
Codec ID : XVID
Codec ID/Hint : XviD
Duration : 1h 37mn
Bit rate : 861 Kbps
Width : 624 pixels
Height : 352 pixels
Display aspect ratio : 16:9
Frame rate : 23.976 fps
Color space : YUV
Chroma subsampling : 4:2:0
Bit depth : 8 bits
Scan type : Progressive
Compression mode : Lossy
Bits/(Pixel*Frame) : 0.164
Stream size : 602 MiB (86%)
Writing library : XviD 1.1.0 (UTC 2005-11-22)
Audio
ID : 1
Format : MPEG Audio
Format version : Version 1
Format profile : Layer 3
Mode : Joint stereo
Mode extension : MS Stereo
Codec ID : 55
Codec ID/Hint : MP3
Duration : 1h 37mn
Bit rate mode : Constant
Bit rate : 128 Kbps
Channel(s) : 2 channels
Sampling rate : 48.0 KHz
Compression mode : Lossy
Stream size : 89.5 MiB (13%)
Alignment : Aligned on interleaves
Interleave, duration : 42 ms (1.00 video frame)
Interleave, preload duration : 504 ms
Writing library : LAME3.97b
Encoding settings : -m j -V 4 -q 2 -lowpass 17 -b 128
Release nameCritical Condition (1987, Widescreen)23.976 FPS
Uploaderigor116 @ . downloaded1060x () . Vote for subtitles10.0 / 10 (1votes) . Remove from favouritesAdd to favourites . Correct subtitlesCorrect subtitles

Uploaded from BSPlayer v2.58 developed by bst2

Comment

log-in to post comments.

Critical Condition subtitles English
Release name#CD UploadedDownloadedSubtitle ratingUploader
Critical Condition ENG1CD1070x 0.00misiek-32
Interesting links
All subtitles for this movie in this languageAll subtitles for this movie
All subtitles from this userRequest this subtitle for a different release
About movie:About movie @ http://www.imdb.comFind file:Critical Condition downloadDownload warez
Release:Release @ http://www.btarena.orgRelease @ http://nfo.raidrush.wsTrailers:Trailers @ http://www.imdb.com
Posters:Critical Condition movie postersPosters @ http://www.imdb.comCovers:Covers @ http://www.allcdcovers.comCovers @ http://www.cdcovers.ccCovers @ http://www.cdcovers.to
Others:Your link here
Movie detailsMovie Rating:5.2 / 10 (2394)
[ Guess who's playing doctor? ] - Eddie is a con artist. But this time he's framed and comes before a judge. By claiming insanity, he hopes to get off the hook. He manages end up in a hospital for a mental examination. That night, a storm breaks out over New York, and the electricity to the hospital is broken. In the ensuing chaos that follows, Eddie is taken for a doctor. Suddenly he is in charge of a whole hospital!
Directed by:
Genre:
Country:
Language:
download subtitle