Missing Privacy  Support us:
X
Advanced search
Watch movies with subtitles using Open Subtitles MKV Player. It is free and clean, works under Windows.
Most of icons are active, hold on mouse over them to know its meaning
Hide ads

Car Wash English subtitles (1976) 1CD srt

Download: Car Wash movie

film

Buy at Amazon

Subtitle details

Download
Thanks3 thanks received

Rate quality of subtitles

Rate QUALITY of subtitles with 1 point (bad)  Rate QUALITY of subtitles with 3 point (poor)  Rate QUALITY of subtitles with 5 point (okay)  Rate QUALITY of subtitles with 7 point (good)  Rate QUALITY of subtitles with 10 point (excellent)

Comment

Subtitle filenameCar Wash.EN.srt (127879bytes) show preview

Uploader commentFormat : AVI
Format/Info : Audio Video Interleave
File size : 704 MiB
Duration : 1h 36mn
Overall bit rate : 1 021 Kbps
Video
ID : 0
Format : MPEG-4 Visual
Format profile : Advanced [email protected]
Format settings, BVOP : 1
Format settings, QPel : No
Format settings, GMC : No warppoints
Format settings, Matrix : Default (H.263)
Muxing mode : Packed bitstream
Codec ID : XVID
Codec ID/Hint : XviD
Duration : 1h 36mn
Bit rate : 916 Kbps
Width : 720 pixels
Height : 448 pixels
Display aspect ratio : 1.607
Frame rate : 23.976 fps
Color space : YUV
Chroma subsampling : 4:2:0
Bit depth : 8 bits
Scan type : Progressive
Compression mode : Lossy
Bits/(Pixel*Frame) : 0.118
Stream size : 631 MiB (90%)
Writing library : XviD 1.1.0 (UTC 2005-11-22)
Audio
ID : 1
Format : MPEG Audio
Format version : Version 1
Format profile : Layer 3
Codec ID : 55
Codec ID/Hint : MP3
Duration : 1h 36mn
Bit rate mode : Constant
Bit rate : 96.0 Kbps
Channel(s) : 2 channels
Sampling rate : 48.0 KHz
Compression mode : Lossy
Delay relative to video : 24ms
Stream size : 66.2 MiB (9%)
Alignment : Split accross interleaves
Interleave, duration : 42 ms (1.00 video frame)
Title : Audio Stream
Writing library : LAME3.92
Release nameCar Wash [NoScene]23.976 FPS
Uploaderigor116 @ . downloaded1335x () . Remove from favouritesAdd to favourites . Correct subtitlesCorrect subtitles

Uploaded from SubDownloader 1.2.9 developed by capiscuas

Comment

log-in to post comments.

Download Car Wash at 25 MBit
Assassin\'s.Creed.2016.BDRip.x264.AC3.Ro (1762 MB) Black.Sails.S04E08.720p.HDTV.x264-FLEET. (1025 MB)
Split.2016.HC.HDRip.XviD.AC3-EVO.avi (1393 MB) Greys.Anatomy.S13E17.HDTV.x264-LOL[eztv] (246 MB)
Car Wash subtitles English
Release name#CD UploadedDownloadedSubtitle ratingUploader
Car.Wash.1976.720p.BluRay.x264-[YTS.AG]Subtitles for hearing impaired1CD837x 0.00hisami
Car.Wash.1976.720p.WEB-DL.AAC2.0.H264-alfaHD1CD299x 0.00
Car Wash1CD2044x 0.00bigfoothart
Interesting links
All subtitles for this movie in this languageAll subtitles for this movie
All subtitles from this userRequest this subtitle for a different release
About movie:About movie @ http://www.imdb.comFind file:Car Wash downloadDownload warez
Release:Release @ http://www.btarena.orgRelease @ http://nfo.raidrush.wsTrailers:Trailers @ http://www.imdb.com
Posters:Car Wash movie postersPosters @ http://www.imdb.comCovers:Covers @ http://www.allcdcovers.comCovers @ http://www.cdcovers.ccCovers @ http://www.cdcovers.to
Others:Your link here
Movie detailsMovie Rating:5.9 / 10 (4918)
[ Hey, it's a '70s thing! ] - Car Wash covers the exploits of a close-knit group of employees at a Los Angeles Car Wash. In an episodic fashion, the film covers a full day, during which all manner of strange visitors make appearances.
Directed by:
Writer credits:
Country:
Hide ads
download subtitle