Missing Privacy  Support us:
X
Advanced search
Watch movies with subtitles using Open Subtitles MKV Player. It is free and clean, works under Windows.
Most of icons are active, hold on mouse over them to know its meaning
Hide ads

Subtitles for hearing impaired

California Suite English subtitles (1978) 1CD srt

Download: California Suite movie

film

Buy at Amazon

Subtitle details

Download
Thanks3 thanks received


Add subtitles to your movies with Freemake Video Converter

Subtitle filenameCalifornia Suite.(1978).EN.HI.srt (154370bytes) show preview

Uploader commentFormat : AVI
Format/Info : Audio Video Interleave
File size : 700 MiB
Duration : 1h 38mn
Overall bit rate : 994 Kbps
Writing application : VirtualDubMod 1.5.4.1 (build 2178/release)
Writing library : VirtualDubMod build 2178/release
Video
ID : 0
Format : MPEG-4 Visual
Format settings, BVOP : No
Format settings, QPel : No
Format settings, GMC : No warppoints
Format settings, Matrix : Default (H.263)
Codec ID : DX50
Codec ID/Hint : DivX 5
Duration : 1h 38mn
Bit rate : 955 Kbps
Width : 496 pixels
Height : 272 pixels
Display aspect ratio : 16:9
Frame rate : 25.000 fps
Color space : YUV
Chroma subsampling : 4:2:0
Bit depth : 8 bits
Scan type : Progressive
Compression mode : Lossy
Bits/(Pixel*Frame) : 0.283
Stream size : 672 MiB (96%)
Writing library : DivX 5.2.1 (WaffleDay) (UTC 2004-09-08)
Audio
ID : 1
Format : MPEG Audio
Format version : Version 2
Format profile : Layer 3
Mode : Joint stereo
Mode extension : MS Stereo
Codec ID : 55
Codec ID/Hint : MP3
Duration : 1h 38mn
Bit rate mode : Constant
Bit rate : 32.0 Kbps
Channel(s) : 2 channels
Sampling rate : 16.0 KHz
Compression mode : Lossy
Stream size : 22.5 MiB (3%)
Alignment : Aligned on interleaves
Interleave, duration : 80 ms (2.00 video frames)
Interleave, preload duration : 504 ms
Writing library : LAME3.97 (beta)
Language : English
Release nameCalifornia Suite [NoScene]25.000 FPS
Uploaderigor116 @ . downloaded1277x () . Vote for subtitles7.0 / 10 (1votes) . Remove from favouritesAdd to favourites . Correct subtitlesCorrect subtitles

Uploaded from BSPlayer v2.64 developed by bst2

Comment

log-in to post comments.

Download California Suite at 25 MBit
The.Royals.2015.S03E05.HDTV.x264-FLEET.m (330 MB) Teen.Wolf.S06E07.HDTV.x264-FLEET.mkv (190 MB)
Ex.Machina.2015.SLOSubs.DVDRip.XviD-DrSi (1430 MB) Frequency.S01E11.HDTV.x264-FLEET.mkv (244 MB)
California Suite subtitles English
Release name#CD UploadedDownloadedSubtitle ratingUploader
1978 California Suite1CD844x 0.00
Interesting links
All subtitles for this movie in this languageAll subtitles for this movie
All subtitles from this userRequest this subtitle for a different release
About movie:About movie @ http://www.imdb.comFind file:California Suite downloadDownload warez
Release:Release @ http://www.btarena.orgRelease @ http://nfo.raidrush.wsTrailers:Trailers @ http://www.imdb.com
Posters:California Suite movie postersPosters @ http://www.imdb.comCovers:Covers @ http://www.allcdcovers.comCovers @ http://www.cdcovers.ccCovers @ http://www.cdcovers.to
Others:Your link here
Movie detailsAKA:California Suite (eng), Neil Simon's California Suite (eng)
Movie Rating:6.2 / 10 (5091)
[ The best two-hour vacation in town! ] - Misadventures of four groups of guests at the Beverly Hills Hotel.
Directed by:
Writer credits:
Country:
Language:
Hide ads
download subtitle