Missing Privacy  Support us:
X
Advanced search
Watch movies with subtitles using Open Subtitles MKV Player. It is free and clean, works under Windows.

Beautiful People English subtitles (1999) 1CD srt

film

Buy at Amazon

Subtitle details

Download
Thanks

Rate quality of subtitles

Rate QUALITY of subtitles with 1 point (bad)  Rate QUALITY of subtitles with 3 point (poor)  Rate QUALITY of subtitles with 5 point (okay)  Rate QUALITY of subtitles with 7 point (good)  Rate QUALITY of subtitles with 10 point (excellent)

Comment

Add subtitles to your movies with Freemake Video Converter

Subtitle filenameBeautiful People 1999.DVDrip.by_Galmuchet.EN.srt (94390bytes) show preview

Uploader commentFormat : AVI
Format/Info : Audio Video Interleave
File size : 1 001 MiB
Duration : 1h 43mn
Overall bit rate : 1 358 Kbps
Writing application : FairUse Wizard - fairusewizard.com
Writing library : The best and REALLY easy backup tool
Video
ID : 0
Format : MPEG-4 Visual
Format profile : Advanced [email protected]
Format settings, BVOP : 1
Format settings, QPel : No
Format settings, GMC : No warppoints
Format settings, Matrix : Default (MPEG)
Muxing mode : Packed bitstream
Codec ID : XVID
Codec ID/Hint : XviD
Duration : 1h 43mn
Bit rate : 1 220 Kbps
Width : 688 pixels
Height : 384 pixels
Display aspect ratio : 16:9
Frame rate : 25.000 fps
Color space : YUV
Chroma subsampling : 4:2:0
Bit depth : 8 bits
Scan type : Progressive
Compression mode : Lossy
Bits/(Pixel*Frame) : 0.185
Stream size : 899 MiB (90%)
Writing library : XviD 1.2.0.dev47 (UTC 2006-11-01)
Audio
ID : 1
Format : MPEG Audio
Format version : Version 1
Format profile : Layer 3
Mode : Joint stereo
Mode extension : MS Stereo
Codec ID : 55
Codec ID/Hint : MP3
Duration : 1h 43mn
Bit rate mode : Constant
Bit rate : 128 Kbps
Channel(s) : 2 channels
Sampling rate : 48.0 KHz
Compression mode : Lossy
Stream size : 94.3 MiB (9%)
Alignment : Aligned on interleaves
Interleave, duration : 40 ms (1.00 video frame)
Interleave, preload duration : 504 ms
Writing library : LAME3.97
Encoding settings : -m j -V 4 -q 2 -lowpass 17 -b 128
Release nameBeautiful People 1999.DVDrip.by_Galmuchet25.000 FPS
Uploaderigor116 @ . downloaded398x () . Remove from favouritesAdd to favourites . Correct subtitlesCorrect subtitles

Uploaded from SubDownloader 1.2.9 developed by capiscuas

Comment

log-in to post comments.

Beautiful People subtitles English
Release name#CD UploadedDownloadedSubtitle ratingUploader
Beautiful People1CD185x 0.00snoopyman
Beautiful People (1999)1CD386x 0.00skodnakke (a)
Beautiful.People.1999.DVDRip.XviD-BiT1CD506x 0.00tonika90 (a)
Interesting links
All subtitles for this movie in this languageAll subtitles for this movie
All subtitles from this userRequest this subtitle for a different release
About movie:About movie @ http://www.imdb.comFind file:Beautiful People downloadDownload warez
Release:Release @ http://www.btarena.orgRelease @ http://nfo.raidrush.wsTrailers:Trailers @ http://www.imdb.com
Posters:Beautiful People movie postersPosters @ http://www.imdb.comCovers:Covers @ http://www.allcdcovers.comCovers @ http://www.cdcovers.ccCovers @ http://www.cdcovers.to
Others:Your link here
Movie detailsMovie Rating:6.7 / 10 (2239)
[ A comic collision of chaos and coincidence ] - In London, during October 1993, England is playing Holland in the preliminaries of the World Cup. The Bosnian War is at its height, and refugees from the ex-Yugoslavia are arriving. Football rivals, and political adversaries from the Balkans all precipitate conflict and amusing situations. Meanwhile, the lives of four English families are affected in different ways by encounter with the refugees
Directed by:
Writer credits:
Country:
Language:
download subtitle