Ad blocking detected, consider supporting www.OpenSubtitles.org in an other way
X
Advanced search
Watch movies with subtitles using Open Subtitles MKV Player. It is free and clean, works under Windows.
We recommend you to visit links in section interesting links
Hide ads

D-Tox Bosnian subtitles (2002) 1CD srt

Download: Eye See You movie

film

Buy at Amazon

Subtitle details

Download
Thanks

Rate quality of subtitles

Rate QUALITY of subtitles with 1 point (bad)  Rate QUALITY of subtitles with 3 point (poor)  Rate QUALITY of subtitles with 5 point (okay)  Rate QUALITY of subtitles with 7 point (good)  Rate QUALITY of subtitles with 10 point (excellent)

Comment

Forget about web, download subtitles using Open Subtitles MKV Player

Subtitle filenameD-Tox.BS.srt (52498bytes) show preview

Uploader commentFormat : AVI
Format/Info : Audio Video Interleave
File size : 693 MiB
Duration : 1h 31mn
Overall bit rate : 1 055 Kbps
Movie name : D-Tox
Director : PDS
Subject : D-Tox
Writing application : Nandub v1.0rc2
Writing library : Nandub build 1853/release
Copyright : Universal
Comment : :P
Video
ID : 0
Format : MPEG-4 Visual
Codec ID : DIV3
Codec ID/Hint : DivX 3 Low
Duration : 1h 31mn
Bit rate : 866 Kbps
Width : 640 pixels
Height : 272 pixels
Display aspect ratio : 2.35:1
Frame rate : 25.000 fps
Color space : YUV
Chroma subsampling : 4:2:0
Bit depth : 8 bits
Compression mode : Lossy
Bits/(Pixel*Frame) : 0.199
Stream size : 568 MiB (82%)
Audio
ID : 1
Format : MPEG Audio
Format version : Version 1
Format profile : Layer 3
Codec ID : 55
Codec ID/Hint : MP3
Duration : 1h 31mn
Bit rate mode : Variable
Bit rate : 177 Kbps
Channel(s) : 2 channels
Sampling rate : 48.0 KHz
Compression mode : Lossy
Stream size : 116 MiB (17%)
Alignment : Aligned on interleaves
Interleave, duration : 24 ms (0.60 video frame)
Interleave, preload duration : 3456 ms
Writing library : LAME3.88 (alpha)
Release nameD-Tox.avi25.000 FPS
Uploaderigor116 @ . downloaded288x () . Remove from favouritesAdd to favourites . Correct subtitlesCorrect subtitles

Uploaded from BSPlayer v2.57 developed by bst2

Comment

log-in to post comments.

Download Eye See You at 25 MBit
The.Magicians.US.S02E04.HDTV.x264-SVA.mk (234 MB) The.Edge.of.Seventeen.2016.720p.BluRay.D (5817 MB)
blindspot.213.hdtv-lol[ettv].mkv (281 MB) Shut.In.2016.720p.BRRip.XviD.AC3-RARBG.a (2053 MB)
Interesting links
All subtitles for this movie in this languageAll subtitles for this movie
All subtitles from this userRequest this subtitle for a different release
About movie:About movie @ http://www.imdb.comFind file:Eye See You downloadDownload warez
Release:Release @ http://www.btarena.orgRelease @ http://nfo.raidrush.wsOfficial site:UIP
Trailers:Trailers @ http://www.imdb.comPosters:Eye See You movie postersposter at movieposters.2038.netPosters @ http://www.imdb.com
Covers:Covers @ http://www.allcdcovers.comCovers @ http://www.cdcovers.ccCovers @ http://www.cdcovers.to
Subtitles:Subtitles @ https://hitsubtitles.comEnglish Subtitles Eye See YouOthers:Your link here
Movie detailsAKA:D-Tox (eng), Detox (eng), Eye See You (eng), The Outpost (eng)
Movie Rating:5.3 / 10 (20158)
[ Survival is a Killer. ] - A disgraced FBI agent with a drinking problem joins nine other troubled law enforcement officers at an isolated detox clinic in the wilds of Wyoming. But the therapeutic sanctuary becomes a nightmarish hellhole when a major snowstorm cuts off the clinic from the outside world and enables a killer on the inside to get busy.
Directed by:
Country:
Language:
Hide ads
download subtitle