Ad blocking detected, consider supporting www.OpenSubtitles.org in an other way
X
Advanced search
Watch movies with subtitles using Open Subtitles MKV Player. It is free and clean, works under Windows.
Most of icons are active, hold on mouse over them to know its meaning
Hide ads

Subtitles for hearing impaired

Daylight English subtitles (1996) 1CD srt

Download: Daylight movie

film

Buy at Amazon

Subtitle details

Download
Thanks

Rate quality of subtitles

Rate QUALITY of subtitles with 1 point (bad)  Rate QUALITY of subtitles with 3 point (poor)  Rate QUALITY of subtitles with 5 point (okay)  Rate QUALITY of subtitles with 7 point (good)  Rate QUALITY of subtitles with 10 point (excellent)

Comment

Add subtitles to your movies with Freemake Video Converter

Subtitle filenameDaylight.EN.HI.srt (122353bytes) show preview

Uploader commentFormat : AVI
Format/Info : Audio Video Interleave
File size : 701 MiB
Duration : 1h 49mn
Overall bit rate : 898 Kbps
Writing library : VirtualDub build 13870/release
Video
ID : 0
Format : MPEG-4 Visual
Codec ID : DIV3
Codec ID/Hint : DivX 3 Low
Duration : 1h 49mn
Bit rate : 760 Kbps
Width : 720 pixels
Height : 408 pixels
Display aspect ratio : 16:9
Frame rate : 25.000 fps
Color space : YUV
Chroma subsampling : 4:2:0
Bit depth : 8 bits
Bits/(Pixel*Frame) : 0.103
Stream size : 593 MiB (85%)
Audio
ID : 1
Format : MPEG Audio
Format version : Version 1
Format profile : Layer 3
Mode : Joint stereo
Mode extension : MS Stereo
Codec ID : 55
Codec ID/Hint : MP3
Duration : 1h 49mn
Bit rate mode : Constant
Bit rate : 128 Kbps
Channel(s) : 2 channels
Sampling rate : 48.0 KHz
Stream size : 99.9 MiB (14%)
Alignment : Split accross interleaves
Interleave, duration : 40 ms (1.00 video frame)
Interleave, preload duration : 500 ms
Release nameDaylight.avi25.000 FPS
Uploaderigor116 @ . downloaded631x () . Remove from favouritesAdd to favourites . Correct subtitlesCorrect subtitles

Uploaded from SubDownloader 1.2.9 developed by capiscuas

Comment

log-in to post comments.

Download Daylight at 25 MBit
Live.by.Night.2016.SLOSubs.BRRip.XviD-Dr (2776 MB) lethal.weapon.118.hdtv-lol[ettv].mkv (248 MB)
Patriots.Day.2016.BluRay.1080p.DTS.x264- (13660 MB) elementary.516.hdtv-lol.mkv (196 MB)
Daylight subtitles English
Release name#CD UploadedDownloadedSubtitle ratingUploader
Daylight.1996.720p.BluRay.x264-[YTS.AG]1CD279x 0.00hisami
Daylight.1996.720p.BluRay.x264-DON1CD1998x 0.00
1080p.Blu-ray.VC-1.DTS-HD.MA.5.1_CeyCey72Subtitles for hearing impaired1CD214x 0.00
1080p.Blu-ray.VC-1.DTS-HD.MA.5.1_CeyCey721CD324x 0.00
s-daylight1CD318x 0.00
Daylight1CD705x 0.00demonseye
Daylight1CD477x 0.00
Daylight-DVDRip[Eng]1996.avi (1080MB)1CD5944x 0.00AMTG
DaylightSubtitles for hearing impaired2CD521x 0.00SmokedCaramel (a)
Daylight (1996)Subtitles for hearing impaired2CD325x 0.00kljukec1 (a)
Interesting links
All subtitles for this movie in this languageAll subtitles for this movie
All subtitles from this userRequest this subtitle for a different release
About movie:About movie @ http://www.imdb.comFind file:Daylight downloadDownload warez
Release:Release @ http://www.btarena.orgRelease @ http://nfo.raidrush.wsTrailers:Trailers @ http://www.imdb.com
Posters:Daylight movie postersPosters @ http://www.imdb.comCovers:Covers @ http://www.allcdcovers.comCovers @ http://www.cdcovers.ccCovers @ http://www.cdcovers.to
Others:Your link here
Movie detailsAKA:Daylight (eng)
Movie Rating:5.8 / 10 (54227)
[ No air. No escape. No time. ] - When an explosion seals off a commuter tunnel, the survivors are faced with toxic fumes, fires and the impending collapse of the tunnel. Their only hope lies in the hands of Kit Latura (Stallone), a former Emergency Medical Services chief who is haunted by a tragic past. As the walls cave in and the tunnel fills up with water, Latura risks his own life to save others and prevent further disaster.
Writer credits:
Country:
Language:
Hide ads
download subtitle