Missing Privacy  Support us:
X
Advanced search
Watch movies with subtitles using Open Subtitles MKV Player. It is free and clean, works under Windows.

Angel Eyes English subtitles (2001) 1CD srt

film

Buy at Amazon

Subtitle details

Download
Thanks3 thanks received

Rate quality of subtitles

Rate QUALITY of subtitles with 1 point (bad)  Rate QUALITY of subtitles with 3 point (poor)  Rate QUALITY of subtitles with 5 point (okay)  Rate QUALITY of subtitles with 7 point (good)  Rate QUALITY of subtitles with 10 point (excellent)

Comment

Subtitle filenameAngel.Eyes.DVDRip.XViD-ViTE.EN.srt (66383bytes) show preview

Uploader commentFormat : AVI
Format/Info : Audio Video Interleave
File size : 701 MiB
Duration : 1h 39mn
Overall bit rate : 981 Kbps
Movie name : Angel Eyes *ViTE*
Director : ViTE
Subject : Angel Eyes *ViTE*
Writing application : Nandub v1.0rc2
Writing library : Nandub build 1853/release
Copyright : ViTE
Comment : ViTE
Video
ID : 0
Format : MPEG-4 Visual
Codec ID : DIV3
Codec ID/Hint : DivX 3 Low
Duration : 1h 39mn
Bit rate : 841 Kbps
Width : 576 pixels
Height : 320 pixels
Display aspect ratio : 16:9
Frame rate : 23.976 fps
Color space : YUV
Chroma subsampling : 4:2:0
Bit depth : 8 bits
Bits/(Pixel*Frame) : 0.190
Stream size : 601 MiB (86%)
Audio
ID : 1
Format : MPEG Audio
Format version : Version 1
Format profile : Layer 3
Mode : Joint stereo
Mode extension : MS Stereo
Codec ID : 55
Codec ID/Hint : MP3
Duration : 1h 39mn
Bit rate mode : Variable
Bit rate : 128 Kbps
Channel(s) : 2 channels
Sampling rate : 44.1 KHz
Stream size : 91.2 MiB (13%)
Alignment : Aligned on interleaves
Interleave, duration : 26 ms (0.63 video frame)
Interleave, preload duration : 496 ms
Writing library : LAME3.88 (alpha)
Release nameAngel.Eyes.DVDRip.XViD-ViTE23.976 FPS
Uploaderigor116 @ . downloaded1569x () . Remove from favouritesAdd to favourites . Correct subtitlesCorrect subtitles

Uploaded from Subdownloader 1.2.9 developed by capiscuas

Comment

log-in to post comments.

Angel Eyes subtitles English
Release name#CD UploadedDownloadedSubtitle ratingUploader
Angel.Eyes.2001.720p.WEB-DL.DD5.1.H264-FGT1CD99x 0.00
Angel.Eyes.E20.END.140615.XviD.HDTV.H264.720p-WITH-iPOP-Ba... 1CD104x 0.00
Angel Eyes .[2001]DVDRIP.XVID.[Eng]-DUQA.11CD2543x 0.00
Angel Eyes1CD4429x 6.00haldarx (a)
Angel Eyes (2001)1CD1688x 0.00BetaMAN (a)
Angel Eyes1CD1051x 0.00Flexor (a)
Interesting links
All subtitles for this movie in this languageAll subtitles for this movie
All subtitles from this userRequest this subtitle for a different release
About movie:About movie @ http://www.imdb.comFind file:Angel Eyes downloadDownload warez
Release:Release @ http://www.btarena.orgRelease @ http://nfo.raidrush.wsOfficial site:Warner Bros.
Trailers:Trailers @ http://www.imdb.comPosters:Angel Eyes movie postersPosters @ http://www.imdb.com
Covers:Covers @ http://www.allcdcovers.comCovers @ http://www.cdcovers.ccCovers @ http://www.cdcovers.to
Subtitles:Subtitles @ https://hitsubtitles.comEnglish Subtitles Angel EyesOthers:Your link here
Movie detailsAKA:Angel Eyes (eng), Heart of Town (eng)
Movie Rating:5.6 / 10 (20064)
[ The deeper you look, the more you will find. ] - A story about a seemingly unlikely couple who cross paths under life-threatening circumstances as though they are destined not only to meet but to save each other's lives. Not once, but twice.
Directed by:
Writer credits:
Country:
Language:
Hide ads
download subtitle