Ad blocking detected, consider supporting www.OpenSubtitles.org in an other way
X
Advanced search
Watch movies with subtitles using Open Subtitles MKV Player. It is free and clean, works under Windows.
Hide ads

The Santa Clause 2 English subtitles (2002) 1CD srt

film

Buy at Amazon

Subtitle details

Download
Thanks2 thanks received

Rate quality of subtitles

Rate QUALITY of subtitles with 1 point (bad)  Rate QUALITY of subtitles with 3 point (poor)  Rate QUALITY of subtitles with 5 point (okay)  Rate QUALITY of subtitles with 7 point (good)  Rate QUALITY of subtitles with 10 point (excellent)

Comment

Subtitle filenameSanta.Clause.2.2002.FS.DVDRip.XviD.iNT-420RipZ.EN.srt (110093bytes) show preview

Uploader commentFormat : AVI
Format/Info : Audio Video Interleave
File size : 699 MiB
Duration : 1h 44mn
Overall bit rate : 936 Kbps
Writing application : VirtualDubMod 1.5.4.1 (build 2178/release)
Writing library : VirtualDubMod build 2178/release
Video
ID : 0
Format : MPEG-4 Visual
Format profile : Advanced [email protected]
Format settings, BVOP : Yes
Format settings, QPel : No
Format settings, GMC : No warppoints
Format settings, Matrix : Custom
Codec ID : XVID
Codec ID/Hint : XviD
Duration : 1h 44mn
Bit rate : 747 Kbps
Width : 512 pixels
Height : 384 pixels
Display aspect ratio : 4:3
Frame rate : 23.976 fps
Color space : YUV
Chroma subsampling : 4:2:0
Bit depth : 8 bits
Scan type : Progressive
Bits/(Pixel*Frame) : 0.159
Stream size : 558 MiB (80%)
Writing library : XviD 1.2.0.dev47 (UTC 2006-11-01)
Audio
ID : 1
Format : MPEG Audio
Format version : Version 1
Format profile : Layer 3
Mode : Joint stereo
Mode extension : MS Stereo
Codec ID : 55
Codec ID/Hint : MP3
Duration : 1h 44mn
Bit rate mode : Variable
Bit rate : 176 Kbps
Nominal bit rate : 192 Kbps
Channel(s) : 2 channels
Sampling rate : 48.0 KHz
Stream size : 132 MiB (19%)
Alignment : Aligned on interleaves
Interleave, duration : 24 ms (0.58 video frame)
Interleave, preload duration : 104 ms
Writing library : LAME3.97
Encoding settings : -m j -V 4 -q 2 -lowpass 18.6 --abr 192
Language : English
Release nameSanta.Clause.2.2002.FS.DVDRip.XviD.iNT-420RipZ23.976 FPS
Uploaderigor116 @ . downloaded7612x () . Remove from favouritesAdd to favourites . Correct subtitlesCorrect subtitles

Uploaded from BSPlayer v2.63 developed by bst2

Comment

log-in to post comments.

The Santa Clause 2 subtitles English
Release name#CD UploadedDownloadedSubtitle ratingUploader
The Santa Clause 2 2002 720p BluRay x264-PSYCHD1CD570x 0.00farkem
The Santa Clause 2 2002 720p BluRay x264-PSYCHDSubtitles for hearing impaired1CD364x 0.00farkem
The Santa Clause 2 (2002)Subtitles for hearing impaired1CD1560x 0.00nixo74
The Santa Clause 2 2002 720p BRRip x264 aac vice1CD17730x 0.00
Santa Clause 2, The (2002)Subtitles for hearing impaired1CD774x 0.00MIRAN_K (a)
Santa Claus 2Subtitles for hearing impaired1CD868x 0.00X-Men.Wolverine (a)
Santa Clause 2, The (2002)3CD1000x 0.00lclclc (a)
Santa Clause 2, The1CD1521x 9.00msmiha (a)
Santa Clause 2, The (2002)1CD23820x 7.50PrimeEvil (a)
Interesting links
All subtitles for this movie in this languageAll subtitles for this movie
All subtitles from this userRequest this subtitle for a different release
About movie:About movie @ http://www.imdb.comFind file:The Santa Clause 2 watch online for freeThe Santa Clause 2 downloadDownload warez
Release:Release @ http://www.btarena.orgRelease @ http://nfo.raidrush.wsOfficial site:Disney's official site
Trailers:Trailers @ http://www.imdb.comPosters:The Santa Clause 2 movie postersPosters @ http://www.imdb.com
Covers:Covers @ https://www.allcdcovers.comCovers @ http://www.cdcovers.ccCovers @ http://www.cdcovers.to
Movie detailsAKA:2 (eng), Santa Clause 2 (eng), SC2 (eng), The Escape Clause: The Santa Clause 2 (eng), The Mrs. Clause: Santa Clause 2 (eng), The Santa Clause 2: The Escape Clause (eng), The Santa Clause 2: The Mrs. Clause (eng), Санта Клаус 2 (eng)
Movie Rating:5.6 / 10 (37743)
[ What's Christmas Fun without some Reindeer Games? ] - Better watch out! The big guy in red is coming to town once again. This time, Scott Calvin -- also known as Santa Claus -- finds out there's an obscure clause in his contract requiring him to take on a wife. He has to leave the North Pole to fulfill his obligations, or else he'll be forced to give up his Yuletide gig.
Directed by:
Writer credits:
Country:
Language:
Hide ads
download subtitle